<?xml version="1.0" standalone="no"?>
<!DOCTYPE svg PUBLIC "-//W3C//DTD SVG 1.1//EN" "http://www.w3.org/Graphics/SVG/1.1/DTD/svg11.dtd" >
<svg xmlns="http://www.w3.org/2000/svg" xmlns:xlink="http://www.w3.org/1999/xlink" version="1.1">
<metadata>
Created by FontForge 20200314 at Wed Jan 15 05:01:01 2020
 By Unknown
Copyright (c) 2016 by Greg Lindy. All rights reserved.
</metadata>
<defs>
<font id="FabrigaLight" horiz-adv-x="500" >
  <font-face 
    font-family="Fabriga Light"
    font-weight="300"
    font-stretch="normal"
    units-per-em="1000"
    panose-1="2 11 3 3 3 2 2 4 2 4"
    ascent="800"
    descent="-200"
    x-height="500"
    cap-height="650"
    bbox="-135 -231 1310 946"
    underline-thickness="50"
    underline-position="-100"
    unicode-range="U+000D-FF3F"
  />
<missing-glyph horiz-adv-x="180" 
 />
    <glyph glyph-name="fi" unicode="fi" horiz-adv-x="616" 
d="M549 668q0 -20 -14.5 -33.5t-34.5 -13.5t-34.5 13.5t-14.5 33.5v2q0 22 14.5 34t34.5 12t34.5 -12t14.5 -34v-2zM470 0v500h60v-500h-60zM52 481l77 18v47q0 169 148 169q19 0 36.5 -3t38.5 -11v-52h-15q-14 8 -30.5 9.5t-30.5 1.5q-47 0 -67 -26t-20 -76v-58h159v-54
h-159v-446h-60v446h-77v35z" />
    <glyph glyph-name="fl" unicode="fl" horiz-adv-x="640" 
d="M52 481l77 18v47q0 169 148 169q19 0 36.5 -3t38.5 -11v-52h-15q-14 8 -30.5 9.5t-30.5 1.5q-47 0 -67 -26t-20 -76v-58h159v-54h-159v-446h-60v446h-77v35zM525 97q0 -30 15 -41t45 -6h9v-53q-7 -2 -19 -2.5t-22 -0.5q-45 0 -66.5 24.5t-21.5 67.5v614h60v-603z" />
    <glyph glyph-name="f_dotlessi" unicode="f&#x131;" horiz-adv-x="616" 
d="M52 481l77 18v47q0 169 148 169q19 0 36.5 -3t38.5 -11v-52h-15q-14 8 -30.5 9.5t-30.5 1.5q-47 0 -67 -26t-20 -76v-58h159v-54h-159v-446h-60v446h-77v35zM470 0v500h60v-500h-60z" />
    <glyph glyph-name=".notdef" horiz-adv-x="180" 
 />
    <glyph glyph-name=".null" horiz-adv-x="0" 
 />
    <glyph glyph-name=".null" horiz-adv-x="0" 
 />
    <glyph glyph-name="nonmarkingreturn" unicode="&#xd;" horiz-adv-x="250" 
 />
    <glyph glyph-name="space" unicode=" " horiz-adv-x="180" 
 />
    <glyph glyph-name="exclam" unicode="!" horiz-adv-x="296" 
d="M123 186l-10 451v13h69v-13l-10 -451h-49zM197 41q0 -20 -14.5 -33.5t-34.5 -13.5t-34.5 13.5t-14.5 33.5v2q0 22 14.5 34t34.5 12t34.5 -12t14.5 -34v-2z" />
    <glyph glyph-name="quotedbl" unicode="&#x22;" horiz-adv-x="347" 
d="M199 637v13h64v-13l-10 -193h-44zM84 637v13h64v-13l-10 -193h-44z" />
    <glyph glyph-name="numbersign" unicode="#" horiz-adv-x="665" 
d="M414 409h-147l-18 -149h147zM389 207h-146l-25 -207h-57v13l24 194h-103v53h110l18 149h-104v52h111l23 189h54v-13l-21 -176h148l23 189h54v-13l-21 -176h106v-52h-112l-18 -149h105v-53h-111l-25 -207h-57v13z" />
    <glyph glyph-name="dollar" unicode="$" horiz-adv-x="539" 
d="M165 414q14 -14 35 -23t45 -15v213q-58 -4 -82.5 -35t-24.5 -68q0 -45 27 -72zM391 254q-17 17 -38.5 27.5t-46.5 17.5v-238q46 6 79 34t33 85q0 48 -27 74zM245 -113v121q-76 9 -122.5 58t-53.5 136v5h62q2 -52 31 -93t83 -52v252q-34 8 -65.5 20t-57.5 36
q-21 20 -33 45.5t-12 60.5v9q0 38 14 66.5t37.5 48t53.5 30.5t63 13v80h61v-82q74 -12 110.5 -58.5t36.5 -108.5v-6h-57q-1 48 -23.5 78t-66.5 40v-225q35 -9 68.5 -23t60.5 -40q20 -20 31 -47t11 -64v-9q0 -42 -15 -72.5t-39.5 -51.5t-55 -32.5t-61.5 -14.5v-120h-61z" />
    <glyph glyph-name="percent" unicode="%" horiz-adv-x="615" 
d="M86 525q0 30 10.5 54t27.5 40.5t40 25.5t47 9t46.5 -9t39.5 -25.5t27.5 -40.5t10.5 -54v-8q0 -30 -10.5 -54t-27.5 -40.5t-40 -25.5t-47 -9t-46.5 9t-39.5 25.5t-27.5 40.5t-10.5 54v8zM126 0v13l358 637h55v-13l-360 -637h-53zM140 520q0 -35 18 -59t53 -24q34 0 52 24
t18 59t-18 60t-52 25q-35 0 -53 -25t-18 -60zM332 131q0 30 10.5 54t27.5 40.5t40 25.5t47 9t46.5 -9t39.5 -25.5t27.5 -40.5t10.5 -54v-8q0 -30 -10.5 -54t-27.5 -40.5t-40 -25.5t-47 -9t-46.5 9t-39.5 25.5t-27.5 40.5t-10.5 54v8zM386 126q0 -35 18 -59t53 -24
q34 0 52 24t18 59t-18 60t-52 25q-35 0 -53 -25t-18 -60z" />
    <glyph glyph-name="ampersand" unicode="&#x26;" horiz-adv-x="679" 
d="M214 524q0 -32 10 -64.5t28 -67.5l3 2q26 14 50.5 28.5t43 32.5t30 41t11.5 54q0 39 -24 63.5t-60 24.5q-42 0 -67 -31t-25 -83zM302 41q46 0 81.5 11t62.5 29q-63 51 -119.5 110t-98.5 123q-37 -25 -64.5 -58.5t-27.5 -86.5q0 -33 13 -57t35.5 -39.5t53 -23.5t64.5 -8z
M576 -10q-20 12 -41 26t-42 29q-35 -27 -83.5 -43.5t-111.5 -16.5q-46 0 -87 11.5t-71.5 34t-48 55t-17.5 75.5v16q0 33 10.5 60.5t27.5 50t40 41t47 33.5q-23 41 -35 79.5t-12 74.5v16q0 36 11.5 65.5t31.5 51t48.5 33.5t62.5 12q32 0 58 -10.5t45 -29t29.5 -43t10.5 -52.5
v-13q0 -40 -15 -70t-39 -53t-54 -41.5t-59 -35.5l-2 -1q39 -59 93.5 -115t115.5 -105q17 23 25 49t8 52q0 42 -10 76t-27 62v15h62q17 -32 27 -68.5t10 -84.5q0 -35 -12 -70.5t-35 -66.5q52 -39 106 -68v-15z" />
    <glyph glyph-name="quotesingle" unicode="'" horiz-adv-x="232" 
d="M84 637v13h64v-13l-10 -193h-44z" />
    <glyph glyph-name="parenleft" unicode="(" horiz-adv-x="296" 
d="M227 696v-12q-47 -105 -67 -203.5t-20 -195.5q0 -95 20.5 -193.5t67.5 -203.5v-12h-47q-56 109 -80 210t-24 199q0 100 24 201t80 210h46z" />
    <glyph glyph-name="parenright" unicode=")" horiz-adv-x="296" 
d="M69 -124v12q47 105 67 203.5t20 195.5q0 95 -20.5 193.5t-67.5 203.5v12h47q56 -109 80 -210t24 -199q0 -100 -24 -201t-80 -210h-46z" />
    <glyph glyph-name="asterisk" unicode="*" horiz-adv-x="412" 
d="M225 601l84 41l21 -55l-93 -22l67 -69l-51 -35l-47 80l-45 -80l-51 35l66 69l-93 22l21 55l82 -41l-10 94h58z" />
    <glyph glyph-name="plus" unicode="+" horiz-adv-x="595" 
d="M52 358h216v226h59v-226h216v-58h-216v-227h-59v227h-216v58z" />
    <glyph glyph-name="comma" unicode="," horiz-adv-x="252" 
d="M131 89h69v-11l-73 -205h-43z" />
    <glyph glyph-name="hyphen" unicode="-" horiz-adv-x="419" 
d="M82 323h255v-58h-255v58z" />
    <glyph glyph-name="period" unicode="." horiz-adv-x="296" 
d="M197 41q0 -20 -14.5 -33.5t-34.5 -13.5t-34.5 13.5t-14.5 33.5v2q0 22 14.5 34t34.5 12t34.5 -12t14.5 -34v-2z" />
    <glyph glyph-name="slash" unicode="/" horiz-adv-x="531" 
d="M113 -124h-55v14l336 806h55v-14z" />
    <glyph glyph-name="zero" unicode="0" horiz-adv-x="592" 
d="M528 316q0 -73 -15 -133.5t-44.5 -104t-73 -68t-99.5 -24.5t-99.5 24.5t-73 68t-44.5 104t-15 133.5v18q0 73 15 134t44.5 104.5t73 68t99.5 24.5t99.5 -24.5t73 -68t44.5 -104.5t15 -134v-18zM296 46q46 0 78 22t52 60t29 88.5t9 106.5q0 58 -9 109.5t-29 89.5t-52 60.5
t-78 22.5t-78 -22t-52 -60t-29 -88.5t-9 -106.5q0 -58 9 -109.5t29 -89.5t52 -60.5t78 -22.5z" />
    <glyph glyph-name="one" unicode="1" horiz-adv-x="292" 
d="M123 0v524h-99v38q51 5 82.5 22.5t42.5 69.5h36v-654h-62z" />
    <glyph glyph-name="two" unicode="2" horiz-adv-x="542" 
d="M464 465q0 -41 -21 -87.5t-56 -87.5q-27 -31 -56.5 -63.5t-58.5 -62.5t-56.5 -57.5t-50.5 -48.5v-2h309l2 -56h-406v49q66 60 128.5 122.5t122.5 131.5q33 39 56.5 82t23.5 96q0 24 -7.5 47t-24 41t-42 29t-60.5 11q-66 -2 -101 -36t-35 -88q0 -10 1 -23t3 -23v-15h-59
q-2 10 -4 29.5t-2 30.5q0 38 12.5 71t37.5 57.5t62 38.5t85 14q46 0 82.5 -13.5t62 -38t39 -58.5t13.5 -75v-15z" />
    <glyph glyph-name="three" unicode="3" horiz-adv-x="531" 
d="M170 387l186 206v2h-290l-1 55h376v-49l-180 -197q43 0 81.5 -15t67 -42t45.5 -64t17 -80v-8q0 -52 -16.5 -91.5t-46 -66t-69 -40t-84.5 -13.5q-62 0 -102.5 18t-65 44.5t-35.5 57.5t-13 57v6h67q3 -25 13 -48t29 -40t46.5 -27.5t64.5 -10.5q72 0 110 42t38 114
q0 29 -9.5 55.5t-29 47t-48 32.5t-67.5 12q-18 0 -36 -2t-26 -4l-12 6z" />
    <glyph glyph-name="four" unicode="4" horiz-adv-x="551" 
d="M21 213l335 437h67v-434h98v-58h-98v-158h-62v158h-330zM361 216v345h-2l-261 -343v-2h263z" />
    <glyph glyph-name="five" unicode="5" horiz-adv-x="531" 
d="M95 317l36 333h314v-56h-259l-22 -216q12 2 30 3t31 1q44 0 88.5 -11t79.5 -34.5t57 -60.5t22 -88v-12q0 -43 -18.5 -78.5t-49.5 -60.5t-71 -38.5t-82 -13.5q-45 0 -97 10t-94 38v67h15q13 -14 33 -24.5t43 -18t47.5 -11t46.5 -3.5q38 0 68.5 11t51.5 29.5t32 44t11 53.5
q0 35 -14.5 61t-39 43.5t-56.5 26.5t-67 9q-29 0 -61.5 -3.5t-61.5 -13.5z" />
    <glyph glyph-name="six" unicode="6" horiz-adv-x="560" 
d="M63 217q0 48 21 107t59 116q21 32 42 59t44 52t49 49.5t57 49.5h75v-13q-75 -55 -135.5 -122.5t-102.5 -135.5l1 -1q9 8 23.5 14t30 10.5t31 7t27.5 2.5q47 0 87.5 -13t70.5 -39.5t47 -66.5t17 -93v-11q0 -44 -18 -81.5t-48.5 -64.5t-70.5 -42.5t-84 -15.5
q-57 0 -98.5 18t-69.5 47.5t-41.5 68t-13.5 79.5v19zM282 355q-39 0 -68.5 -13t-49.5 -34.5t-30 -50t-10 -59.5q0 -27 10.5 -55t31.5 -50t51 -36t69 -14q40 0 70 13.5t49.5 35t29 49.5t9.5 56q0 34 -10 63t-30 50t-50.5 33t-71.5 12z" />
    <glyph glyph-name="seven" unicode="7" horiz-adv-x="521" 
d="M57 650h443v-57q-140 -128 -217.5 -277t-112.5 -316h-65v13q38 161 111.5 309t200.5 271v2h-360v55z" />
    <glyph glyph-name="eight" unicode="8" horiz-adv-x="564" 
d="M500 166q0 -44 -16 -78t-44.5 -57t-69 -35t-88.5 -12t-88.5 12t-69 35t-44.5 57t-16 78v7q0 25 9 50t24 46.5t35 38.5t42 26v2q-17 11 -32.5 27t-27.5 35t-19.5 39.5t-7.5 40.5v8q0 44 15.5 77.5t42 56t62 34t75.5 11.5t75.5 -11.5t62 -34t42 -56t15.5 -77.5v-8
q0 -20 -7.5 -40.5t-19.5 -39.5t-27.5 -35t-32.5 -27v-2q22 -9 42 -26t35 -38.5t24 -46.5t9 -50v-7zM413 483q0 57 -34.5 92t-96.5 35t-96.5 -35t-34.5 -92q0 -22 9 -44t26 -39.5t41 -28t55 -10.5t55 10.5t41 28t26 39.5t9 44zM129 165q0 -60 42 -92t111 -32t111 32t42 92
q0 63 -43 98t-110 35t-110 -35t-43 -98z" />
    <glyph glyph-name="nine" unicode="9" horiz-adv-x="560" 
d="M497 433q0 -48 -21 -107t-59 -116q-21 -32 -42 -59t-44 -52t-49 -49t-57 -50h-75v13q75 55 135.5 122.5t102.5 135.5l-1 1q-9 -7 -23.5 -13.5t-30 -11t-31 -7t-27.5 -2.5q-47 0 -87.5 13t-70.5 39.5t-47 66.5t-17 93v11q0 44 18 81.5t48.5 64.5t70.5 42.5t84 15.5
q57 0 98.5 -18t69.5 -47.5t41.5 -68t13.5 -79.5v-19zM278 295q39 0 68.5 13t49.5 34.5t30 50t10 59.5q0 27 -10.5 55t-31.5 50t-51 36t-69 14q-40 0 -70 -13.5t-49.5 -35t-29 -49t-9.5 -56.5q0 -34 10 -63t30 -50t50.5 -33t71.5 -12z" />
    <glyph glyph-name="colon" unicode=":" horiz-adv-x="296" 
d="M197 415q0 -20 -14.5 -33.5t-34.5 -13.5t-34.5 13.5t-14.5 33.5v2q0 22 14.5 34t34.5 12t34.5 -12t14.5 -34v-2zM197 41q0 -20 -14.5 -33.5t-34.5 -13.5t-34.5 13.5t-14.5 33.5v2q0 22 14.5 34t34.5 12t34.5 -12t14.5 -34v-2z" />
    <glyph glyph-name="semicolon" unicode=";" horiz-adv-x="294" 
d="M136 89h69v-11l-73 -205h-43zM217 415q0 -20 -14.5 -33.5t-34.5 -13.5t-34.5 13.5t-14.5 33.5v2q0 22 14.5 34t34.5 12t34.5 -12t14.5 -34v-2z" />
    <glyph glyph-name="less" unicode="&#x3c;" horiz-adv-x="644" 
d="M158 333v-2l395 -203v-71l-472 247v53l472 246v-68z" />
    <glyph glyph-name="equal" unicode="=" horiz-adv-x="636" 
d="M72 431h492v-55h-492v55zM72 278h492v-56h-492v56z" />
    <glyph glyph-name="greater" unicode="&#x3e;" horiz-adv-x="643" 
d="M90 535v68l472 -246v-53l-472 -247v71l395 203v2z" />
    <glyph glyph-name="question" unicode="?" horiz-adv-x="480" 
d="M211 190l-5 177l6 6q27 3 52.5 11t44.5 22.5t30.5 37t11.5 54.5q0 51 -30 81t-82 30q-59 0 -84.5 -27.5t-29.5 -66.5h-58v12q3 37 19 63t40.5 42.5t53.5 24.5t57 8q42 0 75 -12t55.5 -33.5t34.5 -51.5t12 -65v-10q0 -61 -41.5 -105t-106.5 -60l-3 -138h-52zM285 41
q0 -20 -14.5 -33.5t-34.5 -13.5t-34.5 13.5t-14.5 33.5v2q0 22 14.5 34t34.5 12t34.5 -12t14.5 -34v-2z" />
    <glyph glyph-name="at" unicode="@" horiz-adv-x="789" 
d="M427 -71q-80 0 -147 25.5t-115 72t-75 111t-27 141.5q0 71 26.5 131t73.5 103.5t111 68.5t140 25q71 0 129 -24.5t98.5 -67t62.5 -99.5t22 -122q0 -45 -10.5 -80.5t-28 -59.5t-41.5 -37t-51 -13q-29 0 -52 11.5t-37 41.5q-9 -16 -23.5 -29t-32 -22t-36.5 -13.5t-36 -4.5
q-27 0 -51 8.5t-42 23.5t-28.5 35t-10.5 43v7q0 51 36.5 83t93.5 32q35 0 62.5 -9t51.5 -26v24q0 26 -4 44.5t-16 31.5t-32.5 19t-53.5 6q-26 0 -52 -6t-46 -22h-12v45q25 15 55 21.5t65 6.5q30 0 56 -7t46 -23t31.5 -41.5t11.5 -63.5v-84q0 -47 17 -66t40 -19q20 0 35 11.5
t25 30.5t14.5 43.5t4.5 50.5q0 71 -22.5 122.5t-59 85t-83.5 49.5t-96 16q-61 0 -116 -20.5t-95.5 -57t-64.5 -87.5t-24 -112q0 -70 24 -126.5t66 -96.5t99 -61.5t122 -21.5q53 0 93 10.5t78 30.5h13v-44q-36 -21 -78 -33t-104 -12zM297 201q0 -35 26 -51.5t61 -16.5
q21 0 39.5 8t33 21t22.5 29t8 32v14q-23 17 -45.5 28t-62.5 11q-38 0 -60 -20.5t-22 -54.5z" />
    <glyph glyph-name="A" unicode="A" horiz-adv-x="656" 
d="M183 236h287l-142 347h-2zM494 178h-335l-74 -178h-55v13l265 637h66l266 -637v-13h-59z" />
    <glyph glyph-name="B" unicode="B" horiz-adv-x="603" 
d="M443 340q20 -8 38.5 -23t33.5 -34.5t24 -43t9 -50.5v-6q0 -93 -50 -138t-128 -45h-271v650h231q39 0 72.5 -9.5t58 -30t39 -53t14.5 -77.5v-6q0 -48 -19.5 -80t-51.5 -52v-2zM161 592v-231h188q29 0 48.5 11t31 28t16.5 38t5 41t-5.5 40.5t-18 36.5t-32 26t-47.5 10h-186
zM161 303v-245h198q41 0 65.5 11.5t37.5 30t17.5 41.5t4.5 45q0 16 -5 36.5t-19 38.5t-38.5 30t-63.5 12h-197z" />
    <glyph glyph-name="C" unicode="C" horiz-adv-x="694" 
d="M362 44q50 0 87.5 14t64 38.5t41.5 56.5t21 68h63v-6q-6 -48 -27.5 -89.5t-56.5 -73t-83.5 -49.5t-108.5 -18q-62 0 -117 24t-95.5 67.5t-64 105t-23.5 136.5v24q0 72 23 131t63.5 102t95 66.5t116.5 23.5q58 0 106.5 -17t84 -46.5t57.5 -69t27 -85.5v-6h-61
q-5 33 -20 62.5t-41.5 52t-64 36t-87.5 13.5q-54 0 -97.5 -21.5t-74 -58.5t-47 -87t-16.5 -107q0 -60 16.5 -112.5t47 -91t74 -61t97.5 -22.5z" />
    <glyph glyph-name="D" unicode="D" horiz-adv-x="684" 
d="M621 313q0 -65 -22.5 -125t-63.5 -103q-85 -85 -243 -85h-193v650h193q79 0 139.5 -19.5t103.5 -62.5q41 -43 63.5 -103.5t22.5 -125.5v-26zM484 124q35 37 54 89t19 112t-20.5 116.5t-53.5 89.5t-78.5 47t-104.5 14h-139v-534h139q118 0 184 66z" />
    <glyph glyph-name="E" unicode="E" horiz-adv-x="553" 
d="M476 650v-58h-315v-229h272v-58h-272v-247h315v-58h-377v650h377z" />
    <glyph glyph-name="F" unicode="F" horiz-adv-x="534" 
d="M486 650v-58h-325v-252h282v-58h-282v-282h-62v650h387z" />
    <glyph glyph-name="G" unicode="G" horiz-adv-x="730" 
d="M659 116q-18 -27 -45.5 -50.5t-62.5 -41.5t-76.5 -28.5t-86.5 -10.5q-76 0 -136.5 25.5t-102.5 70t-64 104.5t-22 128v23q0 72 22 132.5t62.5 104t97.5 68t127 24.5q59 0 105.5 -15.5t80 -44t54 -68.5t27.5 -88v-6h-66q-4 32 -17 61.5t-37 51.5t-60.5 35t-88.5 13
q-60 0 -105.5 -21.5t-76 -59t-45.5 -88t-15 -108.5t17.5 -109.5t50.5 -90t80 -60.5t107 -22q67 0 120.5 23.5t92.5 63.5v143h-214v59h277v-218z" />
    <glyph glyph-name="H" unicode="H" horiz-adv-x="723" 
d="M99 0v650h62v-287h401v287h62v-650h-62v305h-401v-305h-62z" />
    <glyph glyph-name="I" unicode="I" horiz-adv-x="260" 
d="M99 0v650h62v-650h-62z" />
    <glyph glyph-name="J" unicode="J" horiz-adv-x="398" 
d="M64 62q14 -8 34.5 -14t43.5 -6t40.5 7t28.5 18q18 18 22 43.5t4 58.5v481h62v-481q0 -37 -6.5 -70.5t-23.5 -59t-47.5 -40.5t-78.5 -15q-19 0 -45 4t-49 14v60h15z" />
    <glyph glyph-name="K" unicode="K" horiz-adv-x="582" 
d="M99 0v650h62v-301l306 301h70v-13l-305 -297l318 -327v-13h-70l-319 325v-325h-62z" />
    <glyph glyph-name="L" unicode="L" horiz-adv-x="511" 
d="M99 650h62v-592h303v-58h-365v650z" />
    <glyph glyph-name="M" unicode="M" horiz-adv-x="932" 
d="M683 650h76l99 -635v-15h-67l-56 378q-2 16 -5.5 41.5t-7.5 53.5t-7 53.5t-5 41.5h-2q-4 -15 -13 -41t-19.5 -53.5t-21 -53.5t-16.5 -42l-155 -368h-36l-155 368q-6 16 -16.5 42t-21 53.5t-19.5 53.5t-13 41h-2q-1 -16 -4.5 -41.5t-7 -53.5t-7.5 -53.5t-6 -41.5l-56 -378
h-65v15l99 635h76l217 -529z" />
    <glyph glyph-name="N" unicode="N" horiz-adv-x="708" 
d="M99 0v650h70l376 -546h2v546h62v-650h-68l-378 551h-2v-551h-62z" />
    <glyph glyph-name="O" unicode="O" horiz-adv-x="742" 
d="M679 313q0 -73 -24 -133.5t-65.5 -103.5t-97.5 -67t-121 -24q-64 0 -120.5 24t-98 67t-65.5 103.5t-24 133.5v24q0 73 24 133.5t65.5 103.5t98 67t120.5 24q65 0 121 -24t97.5 -67t65.5 -103.5t24 -133.5v-24zM371 45q59 0 104.5 22.5t76.5 60.5t47 89t16 108t-16 108
t-47 89t-76.5 60.5t-104.5 22.5t-104.5 -22.5t-76.5 -60.5t-47 -89t-16 -108t16 -108t47 -89t76.5 -60.5t104.5 -22.5z" />
    <glyph glyph-name="P" unicode="P" horiz-adv-x="595" 
d="M550 424q0 -51 -15.5 -89.5t-43 -65t-66 -40t-83.5 -13.5h-181v-216h-62v650h242q45 0 83.5 -13.5t66.5 -40t43.5 -65t15.5 -89.5v-18zM350 274q36 0 61.5 13t42 35t24.5 50.5t8 58.5q0 31 -7.5 60t-24 51.5t-42.5 36t-62 13.5h-189v-318h189z" />
    <glyph glyph-name="Q" unicode="Q" horiz-adv-x="742" 
d="M553 -114l-95 111q-40 -12 -87 -12q-64 0 -120.5 24t-98 67t-65.5 103.5t-24 133.5v24q0 73 24 133.5t65.5 103.5t98 67t120.5 24q65 0 121 -24t97.5 -67t65.5 -103.5t24 -133.5v-24q0 -100 -43 -175t-115 -115l105 -126v-11h-73zM371 45q59 0 104.5 22.5t76.5 60.5
t47 89t16 108t-16 108t-47 89t-76.5 60.5t-104.5 22.5t-104.5 -22.5t-76.5 -60.5t-47 -89t-16 -108t16 -108t47 -89t76.5 -60.5t104.5 -22.5z" />
    <glyph glyph-name="R" unicode="R" horiz-adv-x="595" 
d="M336 319q33 0 56.5 11t38.5 30t22 43t7 50t-7.5 51t-22.5 44.5t-39 31.5t-57 12h-173v-273h175zM99 0v650h226q43 0 79.5 -11.5t63 -35t41.5 -58t15 -79.5v-18q0 -85 -48 -132.5t-125 -53.5l185 -249v-13h-68l-194 261h-113v-261h-62z" />
    <glyph glyph-name="S" unicode="S" horiz-adv-x="564" 
d="M289 40q29 0 56 7t48 22.5t33.5 40t12.5 59.5q0 26 -6.5 45t-21.5 34q-27 27 -63.5 39t-76 21t-78.5 22t-69 41q-22 20 -34.5 48t-12.5 64v10q0 43 17 74.5t45 52.5t63.5 31.5t72.5 10.5q50 0 88 -14t63.5 -39t38 -57.5t12.5 -70.5v-6h-61q-1 61 -36.5 95.5t-103.5 34.5
q-36 0 -62 -9.5t-42 -25t-23.5 -35.5t-7.5 -41q0 -47 29 -76q23 -22 58.5 -33t76 -20.5t81 -24.5t71.5 -46q21 -21 33 -50t12 -68v-9q0 -49 -19.5 -83.5t-49.5 -56.5t-67 -32.5t-73 -10.5q-97 0 -157 53t-68 155v6h66q1 -31 12 -60t30.5 -50.5t48 -34.5t64.5 -13z" />
    <glyph glyph-name="T" unicode="T" horiz-adv-x="556" 
d="M49 650h458v-58h-193v-592h-62v592h-203v58z" />
    <glyph glyph-name="U" unicode="U" horiz-adv-x="664" 
d="M570 650v-424q0 -124 -64 -182.5t-174 -58.5t-174 58.5t-64 182.5v424h62v-429q0 -91 47 -134.5t129 -43.5t129 43.5t47 134.5v429h62z" />
    <glyph glyph-name="V" unicode="V" horiz-adv-x="652" 
d="M329 99l230 551h64v-13l-274 -637h-46l-273 637v13h66l231 -551h2z" />
    <glyph glyph-name="W" unicode="W" horiz-adv-x="884" 
d="M638 83l161 567h61v-13l-187 -637h-73l-157 560h-2l-157 -560h-73l-187 637v13h64l161 -567h2l155 567h75l155 -567h2z" />
    <glyph glyph-name="X" unicode="X" horiz-adv-x="607" 
d="M267 344l-189 293v13h65l161 -251l162 251h63v-13l-190 -291l230 -333v-13h-64l-202 291l-203 -291h-62v13z" />
    <glyph glyph-name="Y" unicode="Y" horiz-adv-x="619" 
d="M279 0v260l-247 377v13h63l216 -336l214 336h61v-13l-245 -377v-260h-62z" />
    <glyph glyph-name="Z" unicode="Z" horiz-adv-x="594" 
d="M93 650h438v-49l-376 -541v-2h367v-58h-446v50l374 540v2h-357v58z" />
    <glyph glyph-name="bracketleft" unicode="[" horiz-adv-x="325" 
d="M98 696h143v-54h-85v-712h86v-54h-144v820z" />
    <glyph glyph-name="backslash" unicode="\" horiz-adv-x="531" 
d="M82 682v14h55l336 -806v-14h-55z" />
    <glyph glyph-name="bracketright" unicode="]" horiz-adv-x="325" 
d="M227 -124h-143v54h85v712h-86v54h144v-820z" />
    <glyph glyph-name="asciicircum" unicode="^" horiz-adv-x="398" 
d="M371 401h-66l-110 191l-104 -191h-64l138 249h63z" />
    <glyph glyph-name="underscore" unicode="_" horiz-adv-x="272" 
d="M-2 -135h276v-53h-276v53z" />
    <glyph glyph-name="grave" unicode="`" 
d="M348 549l-210 114l36 57l196 -137z" />
    <glyph glyph-name="a" unicode="a" horiz-adv-x="525" 
d="M238 41q26 0 52.5 10.5t47.5 30t34.5 46.5t13.5 60v44q-63 21 -125 21q-27 0 -53.5 -6t-46.5 -19t-32.5 -33.5t-12.5 -49.5q0 -53 35 -78.5t87 -25.5zM382 56q-25 -32 -68 -52t-86 -20q-39 0 -74 13.5t-58 37.5q-42 42 -42 101v6q0 40 15.5 70.5t43.5 51.5t66.5 31.5
t83.5 10.5q32 0 63 -3.5t60 -14.5v33q0 64 -27 101.5t-98 37.5q-23 0 -45 -4.5t-39 -15t-27.5 -28.5t-11.5 -44h-61v6q5 39 21 66t40.5 43.5t55.5 24t65 7.5q41 0 75.5 -9.5t59.5 -32t38.5 -59.5t13.5 -92v-322h-43q-5 14 -9.5 28t-9.5 28h-2z" />
    <glyph glyph-name="b" unicode="b" horiz-adv-x="625" 
d="M562 242q0 -56 -15.5 -103t-46 -81.5t-76.5 -53.5t-106 -19q-24 0 -48.5 6t-46.5 16.5t-40.5 25t-30.5 31.5h-2l-19 -64h-42v700h60v-268h2q27 42 74 62.5t98 20.5q45 0 87.5 -15t76.5 -46.5t54.5 -79t20.5 -113.5v-19zM319 40q48 0 82.5 16.5t56 45t32 67.5t10.5 84
q0 43 -11 80.5t-33.5 65.5t-56.5 44t-80 16q-45 0 -78 -17t-54 -45.5t-31 -65.5t-10 -78q0 -42 9.5 -80.5t30.5 -68t54 -47t79 -17.5z" />
    <glyph glyph-name="c" unicode="c" horiz-adv-x="556" 
d="M63 256q0 59 16.5 107t46.5 81.5t73 52t97 18.5q43 0 80 -11.5t65 -33t46 -53.5t22 -73v-6h-61q-10 60 -49 90.5t-102 30.5q-43 0 -75 -15.5t-53.5 -43t-32.5 -66t-11 -83.5t11 -83.5t32.5 -66.5t53.5 -44t74 -16q68 0 106 32t46 92h61v-6q-5 -41 -23 -73t-46 -54.5
t-64.5 -34.5t-78.5 -12q-54 0 -97 18t-73.5 52t-47 82t-16.5 108v11z" />
    <glyph glyph-name="d" unicode="d" horiz-adv-x="625" 
d="M306 459q-48 0 -82.5 -16t-56 -44.5t-32 -67t-10.5 -83.5q0 -43 11 -80.5t33.5 -66t56.5 -45t80 -16.5q45 0 78 17t54 45.5t31 66t10 78.5q0 42 -9.5 80t-30.5 67.5t-53.5 47t-79.5 17.5zM63 259q0 56 15.5 103t46 81t76.5 53t106 19q52 0 96.5 -21.5t70.5 -58.5h2v265
h60v-700h-43l-20 65h-2q-10 -18 -28.5 -32.5t-41.5 -25.5t-49 -16.5t-53 -5.5q-43 0 -85.5 15t-76 46.5t-54 79.5t-20.5 114v19z" />
    <glyph glyph-name="e" unicode="e" horiz-adv-x="579" 
d="M503 135q-17 -70 -72.5 -110t-133.5 -40q-54 0 -97 18t-73.5 52t-47 82t-16.5 108v11q0 59 16 107t46 81.5t73 52t97 18.5q61 0 103 -22.5t68.5 -59.5t38 -83.5t11.5 -94.5v-9.5t-1 -12.5h-390q2 -41 13.5 -76.5t33 -61t53 -40t71.5 -14.5q58 0 94.5 25t51.5 69h61z
M454 287q-4 30 -12.5 61t-26.5 55.5t-46.5 40.5t-72.5 16q-78 0 -120 -46.5t-50 -126.5h328z" />
    <glyph glyph-name="f" unicode="f" horiz-adv-x="406" 
d="M52 481l77 18v50q0 84 35 125t113 41q19 0 41.5 -3t43.5 -11v-52h-15q-14 8 -35.5 9.5t-35.5 1.5q-47 0 -67 -26t-20 -76v-58h169v-54h-169v-446h-60v446h-77v35z" />
    <glyph glyph-name="g" unicode="g" horiz-adv-x="553" 
d="M283 461q-62 0 -98.5 -30t-36.5 -89t36.5 -88.5t99.5 -29.5t98 29.5t35 88.5t-36.5 89t-97.5 30zM520 -46q0 -37 -20 -65t-53 -46.5t-76 -28t-89 -9.5q-50 0 -92.5 9t-73.5 26t-48.5 43t-17.5 60v5q0 20 7 36t18 29t25 23t27 17q-14 13 -26 31t-12 44q0 28 12.5 49.5
t35.5 38.5q-23 21 -36.5 50.5t-13.5 69.5v11q0 42 15.5 73.5t42 52.5t62 32t76.5 11q51 0 91 -15l83 100h63v-11l-97 -117q26 -21 40.5 -52.5t14.5 -73.5v-12q0 -41 -15.5 -72t-42.5 -51.5t-63 -30.5t-76 -10q-55 0 -99 18q-16 -6 -26 -20.5t-10 -31.5q0 -19 12.5 -36.5
t37.5 -17.5h152q30 0 60.5 -6.5t55.5 -21t40.5 -37.5t15.5 -57v-7zM282 -140q38 0 70 6.5t55.5 18.5t36.5 29t13 37q0 36 -28 55.5t-83 19.5h-158q-29 -8 -51 -28t-22 -49q0 -89 167 -89z" />
    <glyph glyph-name="h" unicode="h" horiz-adv-x="570" 
d="M89 0v700h60v-257h2q26 34 67 53t85 19q91 0 138 -47q26 -26 38 -64.5t12 -89.5v-314h-60v317q0 36 -7.5 64t-26.5 47q-31 31 -97 31q-36 0 -64.5 -11t-52.5 -35q-18 -18 -26 -45t-8 -71v-297h-60z" />
    <glyph glyph-name="i" unicode="i" horiz-adv-x="232" 
d="M165 668q0 -20 -14.5 -33.5t-34.5 -13.5t-34.5 13.5t-14.5 33.5v2q0 22 14.5 34t34.5 12t34.5 -12t14.5 -34v-2zM86 0v500h60v-500h-60z" />
    <glyph glyph-name="j" unicode="j" horiz-adv-x="248" 
d="M180 668q0 -20 -14.5 -33.5t-34.5 -13.5t-34.5 13.5t-14.5 33.5v2q0 22 14.5 34t34.5 12t34.5 -12t14.5 -34v-2zM4 -180v20q27 19 46 43.5t30 51.5t16 54.5t5 52.5v458h60v-455q0 -73 -25.5 -131.5t-72.5 -93.5h-59z" />
    <glyph glyph-name="k" unicode="k" horiz-adv-x="477" 
d="M149 253v-253h-60v700h60v-422l210 222h64v-11l-204 -218l250 -260v-11h-71z" />
    <glyph glyph-name="l" unicode="l" horiz-adv-x="259" 
d="M144 97q0 -30 15 -41t45 -6h9v-53q-7 -2 -19 -2.5t-22 -0.5q-45 0 -66.5 24.5t-21.5 67.5v614h60v-603z" />
    <glyph glyph-name="m" unicode="m" horiz-adv-x="852" 
d="M149 0h-60v500h43l17 -57h2q24 35 61 53.5t77 18.5q112 0 152 -89h2q26 42 66.5 65.5t91.5 23.5q172 0 172 -197v-318h-60v319q0 69 -26 104.5t-89 35.5t-100 -41t-37 -114v-304h-60v316q0 69 -26 106t-89 37q-64 0 -100.5 -43t-36.5 -119v-297z" />
    <glyph glyph-name="n" unicode="n" horiz-adv-x="570" 
d="M149 0h-60v500h43l17 -57h2q26 34 67 53t85 19q91 0 138 -47q26 -26 38 -64.5t12 -89.5v-314h-60v317q0 36 -7.5 64t-26.5 47q-31 31 -97 31q-36 0 -64.5 -11t-52.5 -35q-18 -18 -26 -45t-8 -71v-297z" />
    <glyph glyph-name="o" unicode="o" horiz-adv-x="604" 
d="M63 258q0 62 18.5 110t50.5 80.5t75.5 49.5t93.5 17q51 0 95 -17t76 -49.5t50.5 -80.5t18.5 -110v-14q0 -61 -18.5 -109.5t-50.5 -81.5t-75.5 -50.5t-93.5 -17.5q-51 0 -95 17.5t-76 50.5t-50.5 81.5t-18.5 109.5v14zM302 41q44 0 77 16t55 44.5t33.5 67t11.5 82.5
q0 45 -11.5 83t-33.5 65.5t-55 43.5t-77 16q-43 0 -76.5 -16t-55.5 -43.5t-33.5 -65.5t-11.5 -83q0 -44 11.5 -82.5t33.5 -67t55.5 -44.5t76.5 -16z" />
    <glyph glyph-name="p" unicode="p" horiz-adv-x="625" 
d="M319 41q48 0 82.5 16t56 44.5t32 67t10.5 83.5q0 43 -11 80.5t-33.5 66t-56.5 45t-80 16.5q-45 0 -78 -17t-54 -45.5t-31 -66t-10 -78.5q0 -42 9.5 -80t30.5 -67.5t54 -47t79 -17.5zM562 241q0 -56 -15.5 -103t-46.5 -81t-77 -53t-106 -19q-52 0 -96 21.5t-70 58.5h-2
v-245h-60v680h43l20 -65h2q11 18 29 33t41 25.5t49 16t53 5.5q44 0 86 -15t75.5 -46.5t54 -79.5t20.5 -114v-19z" />
    <glyph glyph-name="q" unicode="q" horiz-adv-x="625" 
d="M63 258q0 56 15.5 103t46 81.5t76.5 53.5t106 19q24 0 48.5 -6t46.5 -16.5t40.5 -25t30.5 -31.5h2l19 64h42v-680h-60v248h-2q-27 -42 -74 -62.5t-98 -20.5q-45 0 -87.5 15t-76.5 46.5t-54.5 79t-20.5 113.5v19zM306 460q-48 0 -82.5 -16.5t-56 -45t-32 -67.5t-10.5 -84
q0 -43 11 -80.5t33.5 -65.5t56.5 -44t80 -16q45 0 78 17t54 45.5t31 65.5t10 78q0 42 -9.5 80.5t-30.5 68t-53.5 47t-79.5 17.5z" />
    <glyph glyph-name="r" unicode="r" horiz-adv-x="361" 
d="M149 0h-60v500h35l21 -79h1q20 42 64 62.5t92 20.5h10.5t12.5 -1v-60h-12q-57 0 -90 -18t-49.5 -47t-20.5 -66.5t-4 -75.5v-236z" />
    <glyph glyph-name="s" unicode="s" horiz-adv-x="488" 
d="M247 -15q-86 0 -136 41.5t-54 122.5v6h63q3 -53 31 -85.5t95 -32.5q65 0 93 29.5t28 68.5q0 32 -19 51q-22 22 -54 31t-67 16.5t-68.5 18t-58.5 35.5q-17 17 -26.5 38.5t-9.5 48.5v6q0 32 14 57.5t37.5 42.5t54 26t63.5 9q38 0 70.5 -8t56.5 -25t38.5 -43t16.5 -61v-6
h-60q-1 27 -11 44.5t-25.5 28t-36 14.5t-43.5 4q-32 0 -53.5 -7t-34.5 -19t-18.5 -26.5t-5.5 -29.5q0 -19 5.5 -30.5t16.5 -22.5q18 -18 49 -26t66.5 -15.5t70.5 -19t60 -37.5q17 -17 26 -40.5t9 -49.5q0 -44 -17.5 -73.5t-44 -47.5t-59 -26t-62.5 -8z" />
    <glyph glyph-name="t" unicode="t" horiz-adv-x="382" 
d="M323 500v-54h-144v-312q0 -49 25.5 -69t56.5 -20q18 0 37.5 6t33.5 17h15v-54q-16 -10 -39.5 -16.5t-48.5 -6.5q-40 0 -67 12t-43.5 32t-23 48t-6.5 59v304h-77v32q33 9 52.5 22t30 30t14 38t5.5 45h35v-113h144z" />
    <glyph glyph-name="u" unicode="u" horiz-adv-x="546" 
d="M134 500v-312q0 -41 12.5 -69t32.5 -45.5t45 -25.5t49 -8t49 8t45 25.5t32.5 45.5t12.5 69v312h60v-312q0 -57 -18 -96t-46.5 -63t-64 -34.5t-70.5 -10.5t-70.5 10.5t-64 34.5t-46.5 63t-18 96v312h60z" />
    <glyph glyph-name="v" unicode="v" horiz-adv-x="518" 
d="M438 500h60v-11l-208 -489h-62l-208 489v11h61l177 -429h2z" />
    <glyph glyph-name="w" unicode="w" horiz-adv-x="801" 
d="M401 427h-2l-135 -427h-69l-156 489v11h62l130 -416h2l131 416h75l132 -416h2l130 416h59v-11l-156 -489h-69z" />
    <glyph glyph-name="x" unicode="x" horiz-adv-x="507" 
d="M290 271l192 -260v-11h-65l-165 220l-166 -220h-61v11l192 256l-158 222v11h65l131 -183l132 183h61v-11z" />
    <glyph glyph-name="y" unicode="y" horiz-adv-x="507" 
d="M202 -180h-61v11l79 183l-200 475v11h61l171 -418h2l173 418h60v-11z" />
    <glyph glyph-name="z" unicode="z" horiz-adv-x="498" 
d="M75 500h348v-49l-272 -395v-2h277v-54h-356v45l276 399v2h-273v54z" />
    <glyph glyph-name="braceleft" unicode="{" horiz-adv-x="390" 
d="M154 286q12 -7 21.5 -16t17 -24t11 -37t3.5 -55v-154q0 -27 5 -48.5t29 -21.5h51v-54h-40q-103 0 -103 104v159q0 27 -2.5 49t-10 39t-22 30.5t-37.5 23.5v11q23 11 37.5 24t22 30.5t10 39.5t2.5 49v157q0 104 103 104h40v-54h-51q-24 0 -29 -21.5t-5 -48.5v-152
q0 -33 -3.5 -55t-11 -37t-17 -24.5t-21.5 -16.5v-1z" />
    <glyph glyph-name="bar" unicode="|" horiz-adv-x="514" 
d="M285 774v-900h-56v900h56z" />
    <glyph glyph-name="braceright" unicode="}" horiz-adv-x="390" 
d="M236 286v1q-12 7 -21.5 16.5t-17 24.5t-11 37t-3.5 55v152q0 27 -5 48.5t-29 21.5h-51v54h40q103 0 103 -104v-157q0 -27 2.5 -49t10 -39.5t22 -30.5t37.5 -24v-11q-23 -10 -37.5 -23.5t-22 -30.5t-10 -39t-2.5 -49v-159q0 -104 -103 -104h-40v54h51q24 0 29 21.5t5 48.5
v154q0 33 3.5 55t11 37t17 24t21.5 16z" />
    <glyph glyph-name="asciitilde" unicode="~" horiz-adv-x="523" 
d="M82 304q26 16 51.5 23.5t46.5 7.5q22 0 42.5 -5t40.5 -11.5t40 -11.5t42 -5q45 0 96 34v-60q-24 -16 -48 -23t-47 -7q-22 0 -42 4.5t-40.5 10.5t-40.5 10.5t-42 4.5t-47.5 -8.5t-51.5 -23.5v60z" />
    <glyph glyph-name="uni00A0" unicode="&#xa0;" horiz-adv-x="180" 
 />
    <glyph glyph-name="exclamdown" unicode="&#xa1;" horiz-adv-x="296" 
d="M173 323l10 -451v-13h-69v13l10 451h49zM99 468q0 20 14.5 33.5t34.5 13.5t34.5 -13.5t14.5 -33.5v-2q0 -22 -14.5 -34t-34.5 -12t-34.5 12t-14.5 34v2z" />
    <glyph glyph-name="cent" unicode="&#xa2;" horiz-adv-x="556" 
d="M509 159q-4 -38 -20.5 -68.5t-41 -52.5t-57 -35.5t-69.5 -16.5v-112h-61v113q-92 12 -144.5 80t-52.5 178v11q0 108 52.5 176.5t144.5 80.5v122h61v-121q77 -6 128.5 -50t59.5 -120v-6h-61q-11 56 -41.5 85.5t-85.5 34.5v-416q56 6 87.5 37.5t39.5 85.5h61v-6zM125 249
q0 -81 34 -136.5t101 -68.5v412q-68 -14 -101.5 -70t-33.5 -137z" />
    <glyph glyph-name="sterling" unicode="&#xa3;" horiz-adv-x="565" 
d="M397 -8q-32 0 -60 10t-53.5 21.5t-50 21.5t-49.5 10q-34 0 -48.5 -14.5t-15.5 -40.5h-64q1 54 30 84.5t98 30.5h10q2 14 3 29.5t1 31.5q0 31 -8.5 57.5t-19.5 49.5h-103v58h72q-18 31 -32.5 65.5t-14.5 74.5q0 43 14.5 77t40 58t60 36.5t74.5 12.5q88 0 137 -48t49 -132
v-9h-60v3q0 23 -5.5 45.5t-19.5 41.5t-38 30.5t-61 11.5q-54 0 -89.5 -33t-35.5 -96q0 -35 18 -71t34 -66l1 -1h194v-58h-166q11 -23 17 -47.5t6 -54.5q0 -44 -6 -82q36 -14 69.5 -31t75.5 -17q20 0 31.5 7t18 18.5t9 25.5t2.5 29h62v-9q-1 -28 -8 -52t-21.5 -41t-38.5 -27
t-59 -10z" />
    <glyph glyph-name="currency" unicode="&#xa4;" horiz-adv-x="723" 
d="M163 178q-26 34 -40.5 74t-14.5 85t15 86t41 73l-100 102l38 38l100 -102q33 26 73.5 41t85.5 15t85.5 -15t72.5 -41l102 102l38 -38l-102 -102q27 -33 42 -73t15 -86q0 -45 -14.5 -85t-40.5 -72l100 -101l-38 -38l-99 100q-34 -27 -74.5 -42t-86.5 -15q-45 0 -86 15
t-74 41l-99 -99l-38 38zM361 535q-41 0 -77 -15.5t-63 -42.5t-42.5 -63t-15.5 -77t15.5 -77t42.5 -63t63 -42.5t77 -15.5t77 15.5t63 42.5t42.5 63t15.5 77t-15.5 77t-42.5 63t-63 42.5t-77 15.5z" />
    <glyph glyph-name="yen" unicode="&#xa5;" horiz-adv-x="600" 
d="M332 241v-241h-62v241h-206v56h182l-38 57h-144v57h107l-148 226v13h63l216 -336l214 336h61v-13l-147 -226h108v-57h-145l-37 -56h182v-57h-206z" />
    <glyph glyph-name="brokenbar" unicode="&#xa6;" horiz-adv-x="523" 
d="M285 774v-390h-56v390h56zM285 313v-439h-56v439h56z" />
    <glyph glyph-name="section" unicode="&#xa7;" horiz-adv-x="506" 
d="M159 271q13 -12 35 -19t48.5 -13t55.5 -12t54 -15q14 13 21 30t7 37q0 17 -5.5 32t-17.5 26q-13 12 -32.5 20t-42 14t-46.5 11t-47 11q-27 -11 -38 -29.5t-11 -40.5q0 -15 4.5 -28.5t14.5 -23.5zM257 -73q-83 0 -133 41.5t-54 122.5v6h63q3 -53 30.5 -85t94.5 -32
q65 0 93.5 29t28.5 68q0 17 -5.5 32t-17.5 26q-20 18 -53 27.5t-69 17.5t-69 18t-53 29q-17 16 -26.5 39.5t-9.5 49.5v6q0 33 12.5 57.5t33.5 41.5q-6 4 -10 8q-17 16 -26.5 39.5t-9.5 49.5v6q0 35 14.5 60.5t38 42t54.5 24.5t64 8q76 0 126 -33t54 -104v-6h-60
q-5 53 -37.5 71t-79.5 18q-32 0 -53.5 -6.5t-34 -18t-18 -26t-5.5 -29.5t4.5 -28.5t14.5 -23.5q17 -16 49 -24t68.5 -15.5t71.5 -19t57 -33.5q18 -18 28 -42t10 -53q0 -35 -11 -60.5t-29 -43.5q2 -1 4 -3q36 -36 36 -95q0 -44 -17 -74t-44 -48.5t-60 -26.5t-65 -8z" />
    <glyph glyph-name="dieresis" unicode="&#xa8;" 
d="M381 615q0 -20 -14.5 -33.5t-34.5 -13.5t-34.5 13.5t-14.5 33.5v2q0 22 14.5 34t34.5 12t34.5 -12t14.5 -34v-2zM217 615q0 -20 -14.5 -33.5t-34.5 -13.5t-34.5 13.5t-14.5 33.5v2q0 22 14.5 34t34.5 12t34.5 -12t14.5 -34v-2z" />
    <glyph glyph-name="copyright" unicode="&#xa9;" horiz-adv-x="785" 
d="M392 -12q-72 0 -132.5 26.5t-104 72.5t-68 108t-24.5 132t24.5 132t68 108t104 72.5t132.5 26.5t133 -26.5t104.5 -72.5t68 -108t24.5 -132t-24.5 -132t-68 -108t-104.5 -72.5t-133 -26.5zM392 620q-61 0 -112.5 -23t-88.5 -63t-57.5 -93.5t-20.5 -113.5t20.5 -113.5
t57.5 -93.5t88.5 -63t112.5 -23t112.5 23t88.5 63t58 93.5t21 113.5t-21 113.5t-58 93.5t-88.5 63t-112.5 23zM275 328q0 -28 8 -54t23.5 -45t39 -30.5t53.5 -11.5q50 0 77.5 30.5t32.5 69.5h49v-6q-4 -30 -17.5 -56t-35 -44.5t-49.5 -29.5t-61 -11q-35 0 -66 13.5t-54 37.5
t-36.5 57t-13.5 73v13q0 40 13.5 73t36.5 57t54 37.5t66 13.5q33 0 61 -11t49.5 -30t35.5 -45t17 -56v-5h-49q-5 39 -32.5 69.5t-77.5 30.5q-30 0 -53 -11t-39 -30.5t-24 -44.5t-8 -54z" />
    <glyph glyph-name="ordfeminine" unicode="&#xaa;" horiz-adv-x="433" 
d="M134 391q0 -33 23 -50t55 -17q13 0 28.5 6t28.5 17t21.5 26t8.5 34v38q-18 8 -40 10t-40 2q-13 0 -28 -3.5t-28 -11.5t-21 -20.5t-8 -30.5zM81 390q0 35 16 57t38.5 34t47 16t41.5 4q13 0 34 -2.5t41 -7.5q0 24 -3 43t-11.5 32.5t-24 20.5t-41.5 7q-31 0 -52 -14.5
t-23 -42.5h-51v6q3 26 15 44.5t30 30.5t39 17.5t41 5.5q21 0 44.5 -4t44 -18t34 -40.5t13.5 -72.5v-216h-35l-17 37q-19 -23 -46.5 -36t-60.5 -13q-22 0 -42.5 8t-36.5 22.5t-25.5 34t-9.5 43.5v4z" />
    <glyph glyph-name="guillemotleft" unicode="&#xab;" horiz-adv-x="527" 
d="M50 257l157 188h65v-14l-149 -179l149 -178v-14h-65l-157 188v9zM240 257l157 188h65v-14l-149 -179l149 -178v-14h-65l-157 188v9z" />
    <glyph glyph-name="logicalnot" unicode="&#xac;" horiz-adv-x="527" 
d="M406 503h-362v57h425v-282h-63v225z" />
    <glyph glyph-name="registered" unicode="&#xae;" horiz-adv-x="785" 
d="M392 -12q-72 0 -132.5 26.5t-104 72.5t-68 108t-24.5 132t24.5 132t68 108t104 72.5t132.5 26.5t133 -26.5t104.5 -72.5t68 -108t24.5 -132t-24.5 -132t-68 -108t-104.5 -72.5t-133 -26.5zM392 620q-61 0 -112.5 -23t-88.5 -63t-57.5 -93.5t-20.5 -113.5t20.5 -113.5
t57.5 -93.5t88.5 -63t112.5 -23t112.5 23t88.5 63t58 93.5t21 113.5t-21 113.5t-58 93.5t-88.5 63t-112.5 23zM322 472v-142h94q19 0 32 6.5t21 17t11.5 23.5t3.5 26q0 9 -3.5 21t-11.5 22.5t-20.5 18t-29.5 7.5h-97zM534 397q0 -38 -21 -65.5t-54 -41.5l91 -124v-18h-48
l-100 136h-80v-136h-49v370h137q25 0 47.5 -7.5t39.5 -21.5t27 -35t10 -48v-9z" />
    <glyph glyph-name="macron" unicode="&#xaf;" 
d="M112 643h276v-53h-276v53z" />
    <glyph glyph-name="degree" unicode="&#xb0;" horiz-adv-x="455" 
d="M74 509q0 36 14 64t36.5 46.5t49.5 28t53 9.5t53 -9.5t49.5 -28t37 -46.5t14.5 -64v-11q0 -36 -14.5 -64t-37 -47t-49.5 -28.5t-53 -9.5t-53 9.5t-49.5 28.5t-36.5 47t-14 64v11zM139 498q0 -23 8 -41t21 -30t28.5 -18t30.5 -6t31 6t28.5 18t21 30t8.5 41v11
q0 24 -8.5 41.5t-21 29t-28.5 17.5t-31 6t-30.5 -6t-28.5 -17.5t-21 -29t-8 -41.5v-11z" />
    <glyph glyph-name="plusminus" unicode="&#xb1;" horiz-adv-x="595" 
d="M72 444h196v175h59v-175h196v-60h-196v-176h-59v176h-196v60zM72 100h451v-57h-451v57z" />
    <glyph glyph-name="uni00B2" unicode="&#xb2;" horiz-adv-x="297" 
d="M32 297v33q19 17 49 42.5t58 55.5t48 62t20 61q0 26 -16.5 42t-43.5 16q-33 0 -48.5 -18t-15.5 -41q0 -10 1 -16t1 -9v-6h-50q-4 13 -4 34q0 24 10 43.5t26 32.5t37 20t43 7q51 0 83.5 -27.5t32.5 -77.5v-7q0 -25 -13.5 -51.5t-34.5 -52t-45 -49t-45 -43.5v-3h143v-48
h-236z" />
    <glyph glyph-name="uni00B3" unicode="&#xb3;" horiz-adv-x="305" 
d="M144 291q-51 0 -83.5 27t-34.5 75v4h52q8 -58 69 -58q32 0 50.5 17.5t18.5 49.5q0 24 -17.5 45t-55.5 21q-18 0 -33 -4l-8 7l-10 24l85 103v1q-14 -1 -26.5 -1h-19.5h-90v48h211v-34l-79 -97q42 -8 69.5 -37.5t27.5 -68.5v-4q0 -29 -10.5 -51t-28 -37t-40 -22.5
t-47.5 -7.5z" />
    <glyph glyph-name="acute" unicode="&#xb4;" 
d="M129 583l196 137l36 -57l-210 -114z" />
    <glyph glyph-name="uni00B5" unicode="&#xb5;" horiz-adv-x="603" 
d="M469 560h58v-560h-41l-8 28t-9 28h-2q-14 -18 -34 -31t-41.5 -22t-43.5 -13.5t-40 -4.5q-21 0 -45 3t-46.5 9t-41 15t-28.5 20v-212h-56v740h56v-360q0 -30 8 -58.5t26.5 -51t49 -36.5t76.5 -14q40 0 70 13t50 35.5t30.5 52.5t11.5 65v354z" />
    <glyph glyph-name="paragraph" unicode="&#xb6;" horiz-adv-x="550" 
d="M92 502q0 36 12 63.5t32 46t46.5 28.5t55.5 10h174v-650h-58v588h-83v-246h-17q-31 0 -60.5 10t-52 29t-36 46.5t-13.5 63.5v11z" />
    <glyph glyph-name="periodcentered" unicode="&#xb7;" horiz-adv-x="296" 
d="M197 280q0 -20 -14.5 -33.5t-34.5 -13.5t-34.5 13.5t-14.5 33.5v2q0 22 14.5 34t34.5 12t34.5 -12t14.5 -34v-2z" />
    <glyph glyph-name="cedilla" unicode="&#xb8;" 
d="M195 -68l25 68h50l-15 -44q17 -5 34 -19.5t17 -38.5q0 -21 -9.5 -35.5t-25 -24t-35.5 -14t-41 -4.5q-40 0 -71 11v46h10q17 -5 33.5 -7t25.5 -2q53 0 53 29q0 17 -13.5 24t-34.5 5z" />
    <glyph glyph-name="uni00B9" unicode="&#xb9;" horiz-adv-x="198" 
d="M101 297v260h-77v34q38 5 59.5 16t33.5 43h35v-353h-51z" />
    <glyph glyph-name="ordmasculine" unicode="&#xba;" horiz-adv-x="459" 
d="M65 469q0 41 13.5 73t36 54t52 33.5t61.5 11.5t62 -11.5t53 -33.5t37 -54t14 -73v-11q0 -42 -14 -75t-37 -55t-53 -33.5t-62 -11.5t-61.5 11.5t-52 33.5t-36 55t-13.5 75v11zM229 596q-54 0 -82 -38t-28 -95t28 -95t82 -38q55 0 83 38t28 95t-28 95t-83 38z" />
    <glyph glyph-name="guillemotright" unicode="&#xbb;" horiz-adv-x="527" 
d="M287 248l-157 -188h-65v14l149 178l-149 179v14h65l157 -188v-9zM477 248l-157 -188h-65v14l149 178l-149 179v14h65l157 -188v-9z" />
    <glyph glyph-name="uni00BC" unicode="&#xbc;" horiz-adv-x="678" 
d="M107 297v260h-77v34q38 5 59.5 16t33.5 43h35v-353h-51zM362 130l176 223h59v-216h47v-50h-47v-87h-54v87h-174zM543 137v148h-3q-20 -32 -50.5 -73t-58.5 -75h112zM72 0v14l418 636h55v-13q-106 -161 -210.5 -318.5t-210.5 -318.5h-52z" />
    <glyph glyph-name="uni00BD" unicode="&#xbd;" horiz-adv-x="675" 
d="M410 0v33q19 17 49 42.5t58 55.5t48 62t20 61q0 26 -16.5 42t-43.5 16q-33 0 -48.5 -18t-15.5 -41q0 -10 1 -16t1 -9v-6h-50q-4 13 -4 34q0 24 10 43.5t26 32.5t37 20t43 7q51 0 83.5 -27.5t32.5 -77.5v-7q0 -25 -13.5 -51.5t-34.5 -52t-45 -49t-45 -43.5v-3h143v-48
h-236zM107 297v260h-77v34q38 5 59.5 16t33.5 43h35v-353h-51zM72 0v14l418 636h55v-13q-106 -161 -210.5 -318.5t-210.5 -318.5h-52z" />
    <glyph glyph-name="uni00BE" unicode="&#xbe;" horiz-adv-x="767" 
d="M142 291q-51 0 -83.5 27t-34.5 75v4h52q8 -58 69 -58q32 0 50.5 17.5t18.5 49.5q0 24 -17.5 45t-55.5 21q-18 0 -33 -4l-8 7l-10 24l85 103v1q-14 -1 -26.5 -1h-19.5h-90v48h211v-34l-79 -97q42 -8 69.5 -37.5t27.5 -68.5v-4q0 -29 -10.5 -51t-28 -37t-40 -22.5
t-47.5 -7.5zM161 0v14l418 636h55v-13q-106 -161 -210.5 -318.5t-210.5 -318.5h-52zM451 130l176 223h59v-216h47v-50h-47v-87h-54v87h-174zM632 137v148h-3q-20 -32 -50.5 -73t-58.5 -75h112z" />
    <glyph glyph-name="questiondown" unicode="&#xbf;" horiz-adv-x="480" 
d="M270 319l5 -177l-6 -6q-27 -3 -52.5 -11t-44.5 -22.5t-30.5 -37t-11.5 -54.5q0 -51 30 -81t82 -30q59 0 84.5 27.5t29.5 66.5h58v-12q-3 -37 -19 -63t-40.5 -42.5t-53.5 -24.5t-57 -8q-42 0 -75 12t-55.5 33.5t-34.5 51.5t-12 65v10q0 61 41.5 105t106.5 60l3 138h52z
M196 468q0 20 14.5 33.5t34.5 13.5t34.5 -13.5t14.5 -33.5v-2q0 -22 -14.5 -34t-34.5 -12t-34.5 12t-14.5 34v2z" />
    <glyph glyph-name="Agrave" unicode="&#xc0;" horiz-adv-x="656" 
d="M183 236h287l-142 347h-2zM494 178h-335l-74 -178h-55v13l265 637h66l266 -637v-13h-59zM436 699l-210 114l36 57l196 -137z" />
    <glyph glyph-name="Aacute" unicode="&#xc1;" horiz-adv-x="656" 
d="M183 236h287l-142 347h-2zM494 178h-335l-74 -178h-55v13l265 637h66l266 -637v-13h-59zM212 733l196 137l36 -57l-210 -114z" />
    <glyph glyph-name="Acircumflex" unicode="&#xc2;" horiz-adv-x="656" 
d="M183 236h287l-142 347h-2zM494 178h-335l-74 -178h-55v13l265 637h66l266 -637v-13h-59zM186 738l142 104l147 -104l-21 -35l-126 70l-119 -70z" />
    <glyph glyph-name="Atilde" unicode="&#xc3;" horiz-adv-x="656" 
d="M183 236h287l-142 347h-2zM494 178h-335l-74 -178h-55v13l265 637h66l266 -637v-13h-59zM178 715q0 18 5.5 35.5t16.5 32t28 23.5t40 9t39 -7.5t30 -16t26.5 -16t27.5 -7.5q17 0 30.5 10t13.5 42h47q0 -18 -5.5 -35.5t-16.5 -32t-28 -23.5t-40 -9q-22 0 -38.5 7.5
t-30.5 16t-26.5 16t-27.5 7.5q-17 0 -30.5 -10t-13.5 -42h-47z" />
    <glyph glyph-name="Adieresis" unicode="&#xc4;" horiz-adv-x="656" 
d="M183 236h287l-142 347h-2zM494 178h-335l-74 -178h-55v13l265 637h66l266 -637v-13h-59zM461 765q0 -20 -14.5 -33.5t-34.5 -13.5t-34.5 13.5t-14.5 33.5v2q0 22 14.5 34t34.5 12t34.5 -12t14.5 -34v-2zM297 765q0 -20 -14.5 -33.5t-34.5 -13.5t-34.5 13.5t-14.5 33.5v2
q0 22 14.5 34t34.5 12t34.5 -12t14.5 -34v-2z" />
    <glyph glyph-name="Aring" unicode="&#xc5;" horiz-adv-x="656" 
d="M374 728q0 20 -12 33.5t-32 13.5q-19 0 -31.5 -13.5t-12.5 -33.5t12.5 -34.5t31.5 -14.5q20 0 32 14.5t12 34.5zM183 236h287l-142 347h-2zM85 0h-55v13l263 632q-24 11 -38.5 32.5t-14.5 49.5q0 38 26 63.5t64 25.5q39 0 65 -25.5t26 -63.5q0 -29 -15.5 -51.5
t-41.5 -32.5l263 -630v-13h-59l-74 178h-335z" />
    <glyph glyph-name="AE" unicode="&#xc6;" horiz-adv-x="893" 
d="M441 597l-230 -361h232v361h-2zM818 650v-58h-315v-229h272v-58h-272v-247h315v-58h-375v178h-269l-112 -178h-67v14l407 636h416z" />
    <glyph glyph-name="Ccedilla" unicode="&#xc7;" horiz-adv-x="694" 
d="M311 -180q-40 0 -71 11v46h10q17 -5 33.5 -7t25.5 -2q53 0 53 29q0 17 -13.5 24t-34.5 5l-3 6l20 55q-57 6 -106 32t-85 69t-56.5 101.5t-20.5 128.5v24q0 72 23 131t63.5 102t95 66.5t116.5 23.5q58 0 106.5 -17t84 -46.5t57.5 -69t27 -85.5v-6h-61q-5 33 -20 62.5
t-41.5 52t-64 36t-87.5 13.5q-54 0 -97.5 -21.5t-74 -58.5t-47 -87t-16.5 -107q0 -60 16.5 -112.5t47 -91t74 -61t97.5 -22.5q50 0 87.5 14t64 38.5t41.5 56.5t21 68h63v-6q-5 -46 -25 -86.5t-53 -71.5t-78.5 -50t-101.5 -22l-10 -29q17 -5 34 -19.5t17 -38.5
q0 -21 -9.5 -35.5t-25 -24t-35.5 -14t-41 -4.5z" />
    <glyph glyph-name="Egrave" unicode="&#xc8;" horiz-adv-x="553" 
d="M476 650v-58h-315v-229h272v-58h-272v-247h315v-58h-377v650h377zM386 698l-210 114l36 57l196 -137z" />
    <glyph glyph-name="Eacute" unicode="&#xc9;" horiz-adv-x="553" 
d="M476 650v-58h-315v-229h272v-58h-272v-247h315v-58h-377v650h377zM161 733l196 137l36 -57l-210 -114z" />
    <glyph glyph-name="Ecircumflex" unicode="&#xca;" horiz-adv-x="553" 
d="M476 650v-58h-315v-229h272v-58h-272v-247h315v-58h-377v650h377zM148 738l142 104l147 -104l-21 -35l-126 70l-119 -70z" />
    <glyph glyph-name="Edieresis" unicode="&#xcb;" horiz-adv-x="553" 
d="M476 650v-58h-315v-229h272v-58h-272v-247h315v-58h-377v650h377zM418 765q0 -20 -14.5 -33.5t-34.5 -13.5t-34.5 13.5t-14.5 33.5v2q0 22 14.5 34t34.5 12t34.5 -12t14.5 -34v-2zM254 765q0 -20 -14.5 -33.5t-34.5 -13.5t-34.5 13.5t-14.5 33.5v2q0 22 14.5 34t34.5 12
t34.5 -12t14.5 -34v-2z" />
    <glyph glyph-name="Igrave" unicode="&#xcc;" horiz-adv-x="260" 
d="M99 0v650h62v-650h-62zM234 699l-210 114l36 57l196 -137z" />
    <glyph glyph-name="Iacute" unicode="&#xcd;" horiz-adv-x="260" 
d="M99 0v650h62v-650h-62zM8 732l196 137l36 -57l-210 -114z" />
    <glyph glyph-name="Icircumflex" unicode="&#xce;" horiz-adv-x="260" 
d="M99 0v650h62v-650h-62zM-15 737l142 104l147 -104l-21 -35l-126 70l-119 -70z" />
    <glyph glyph-name="Idieresis" unicode="&#xcf;" horiz-adv-x="260" 
d="M99 0v650h62v-650h-62zM259 765q0 -20 -14.5 -33.5t-34.5 -13.5t-34.5 13.5t-14.5 33.5v2q0 22 14.5 34t34.5 12t34.5 -12t14.5 -34v-2zM95 765q0 -20 -14.5 -33.5t-34.5 -13.5t-34.5 13.5t-14.5 33.5v2q0 22 14.5 34t34.5 12t34.5 -12t14.5 -34v-2z" />
    <glyph glyph-name="Eth" unicode="&#xd0;" horiz-adv-x="684" 
d="M99 0v300h-77v57h77v293h193q79 0 139.5 -19.5t103.5 -62.5q41 -43 63.5 -103.5t22.5 -125.5v-26q0 -65 -22.5 -125t-63.5 -103q-85 -85 -243 -85h-193zM300 58q118 0 184 66q35 37 54 89t19 112t-20.5 116.5t-53.5 89.5t-78.5 47t-104.5 14h-139v-235h183v-57h-183v-242
h139z" />
    <glyph glyph-name="Ntilde" unicode="&#xd1;" horiz-adv-x="708" 
d="M99 0v650h70l376 -546h2v546h62v-650h-68l-378 551h-2v-551h-62zM209 715q0 18 5.5 35.5t16.5 32t28 23.5t40 9t39 -7.5t30 -16t26.5 -16t27.5 -7.5q17 0 30.5 10t13.5 42h47q0 -18 -5.5 -35.5t-16.5 -32t-28 -23.5t-40 -9q-22 0 -38.5 7.5t-30.5 16t-26.5 16t-27.5 7.5
q-17 0 -30.5 -10t-13.5 -42h-47z" />
    <glyph glyph-name="Ograve" unicode="&#xd2;" horiz-adv-x="742" 
d="M679 313q0 -73 -24 -133.5t-65.5 -103.5t-97.5 -67t-121 -24q-64 0 -120.5 24t-98 67t-65.5 103.5t-24 133.5v24q0 73 24 133.5t65.5 103.5t98 67t120.5 24q65 0 121 -24t97.5 -67t65.5 -103.5t24 -133.5v-24zM371 45q59 0 104.5 22.5t76.5 60.5t47 89t16 108t-16 108
t-47 89t-76.5 60.5t-104.5 22.5t-104.5 -22.5t-76.5 -60.5t-47 -89t-16 -108t16 -108t47 -89t76.5 -60.5t104.5 -22.5zM468 699l-210 114l36 57l196 -137z" />
    <glyph glyph-name="Oacute" unicode="&#xd3;" horiz-adv-x="742" 
d="M679 313q0 -73 -24 -133.5t-65.5 -103.5t-97.5 -67t-121 -24q-64 0 -120.5 24t-98 67t-65.5 103.5t-24 133.5v24q0 73 24 133.5t65.5 103.5t98 67t120.5 24q65 0 121 -24t97.5 -67t65.5 -103.5t24 -133.5v-24zM371 45q59 0 104.5 22.5t76.5 60.5t47 89t16 108t-16 108
t-47 89t-76.5 60.5t-104.5 22.5t-104.5 -22.5t-76.5 -60.5t-47 -89t-16 -108t16 -108t47 -89t76.5 -60.5t104.5 -22.5zM243 733l196 137l36 -57l-210 -114z" />
    <glyph glyph-name="Ocircumflex" unicode="&#xd4;" horiz-adv-x="742" 
d="M679 313q0 -73 -24 -133.5t-65.5 -103.5t-97.5 -67t-121 -24q-64 0 -120.5 24t-98 67t-65.5 103.5t-24 133.5v24q0 73 24 133.5t65.5 103.5t98 67t120.5 24q65 0 121 -24t97.5 -67t65.5 -103.5t24 -133.5v-24zM371 45q59 0 104.5 22.5t76.5 60.5t47 89t16 108t-16 108
t-47 89t-76.5 60.5t-104.5 22.5t-104.5 -22.5t-76.5 -60.5t-47 -89t-16 -108t16 -108t47 -89t76.5 -60.5t104.5 -22.5zM228 738l142 104l147 -104l-21 -35l-126 70l-119 -70z" />
    <glyph glyph-name="Otilde" unicode="&#xd5;" horiz-adv-x="742" 
d="M679 313q0 -73 -24 -133.5t-65.5 -103.5t-97.5 -67t-121 -24q-64 0 -120.5 24t-98 67t-65.5 103.5t-24 133.5v24q0 73 24 133.5t65.5 103.5t98 67t120.5 24q65 0 121 -24t97.5 -67t65.5 -103.5t24 -133.5v-24zM371 45q59 0 104.5 22.5t76.5 60.5t47 89t16 108t-16 108
t-47 89t-76.5 60.5t-104.5 22.5t-104.5 -22.5t-76.5 -60.5t-47 -89t-16 -108t16 -108t47 -89t76.5 -60.5t104.5 -22.5zM220 715q0 18 5.5 35.5t16.5 32t28 23.5t40 9t39 -7.5t30 -16t26.5 -16t27.5 -7.5q17 0 30.5 10t13.5 42h47q0 -18 -5.5 -35.5t-16.5 -32t-28 -23.5
t-40 -9q-22 0 -38.5 7.5t-30.5 16t-26.5 16t-27.5 7.5q-17 0 -30.5 -10t-13.5 -42h-47z" />
    <glyph glyph-name="Odieresis" unicode="&#xd6;" horiz-adv-x="742" 
d="M679 313q0 -73 -24 -133.5t-65.5 -103.5t-97.5 -67t-121 -24q-64 0 -120.5 24t-98 67t-65.5 103.5t-24 133.5v24q0 73 24 133.5t65.5 103.5t98 67t120.5 24q65 0 121 -24t97.5 -67t65.5 -103.5t24 -133.5v-24zM371 45q59 0 104.5 22.5t76.5 60.5t47 89t16 108t-16 108
t-47 89t-76.5 60.5t-104.5 22.5t-104.5 -22.5t-76.5 -60.5t-47 -89t-16 -108t16 -108t47 -89t76.5 -60.5t104.5 -22.5zM503 765q0 -20 -14.5 -33.5t-34.5 -13.5t-34.5 13.5t-14.5 33.5v2q0 22 14.5 34t34.5 12t34.5 -12t14.5 -34v-2zM339 765q0 -20 -14.5 -33.5t-34.5 -13.5
t-34.5 13.5t-14.5 33.5v2q0 22 14.5 34t34.5 12t34.5 -12t14.5 -34v-2z" />
    <glyph glyph-name="multiply" unicode="&#xd7;" horiz-adv-x="609" 
d="M75 518l38 39l191 -192l193 195l40 -41l-194 -193l193 -191l-39 -39l-191 191l-194 -191l-40 40l193 192z" />
    <glyph glyph-name="Oslash" unicode="&#xd8;" horiz-adv-x="742" 
d="M127 325q0 -75 27 -138t80 -100l217 506q-37 12 -80 12q-59 0 -104.5 -22.5t-76.5 -60.5t-47 -89t-16 -108zM371 45q59 0 104.5 22.5t76.5 60.5t47 89t16 108q0 78 -29 143t-86 101l-219 -508q20 -8 42.5 -12t47.5 -4zM371 -15q-60 0 -113 21l-31 -71h-52v15l34 80
q-66 42 -106 114.5t-40 168.5v24q0 73 24 133.5t65.5 103.5t98 67t120.5 24q54 0 103 -17l29 67h53v-15l-32 -75q70 -40 112.5 -114t42.5 -174v-24q0 -73 -24 -133.5t-65.5 -103.5t-97.5 -67t-121 -24z" />
    <glyph glyph-name="Ugrave" unicode="&#xd9;" horiz-adv-x="664" 
d="M570 650v-424q0 -124 -64 -182.5t-174 -58.5t-174 58.5t-64 182.5v424h62v-429q0 -91 47 -134.5t129 -43.5t129 43.5t47 134.5v429h62zM403 699l-210 114l36 57l196 -137z" />
    <glyph glyph-name="Uacute" unicode="&#xda;" horiz-adv-x="664" 
d="M570 650v-424q0 -124 -64 -182.5t-174 -58.5t-174 58.5t-64 182.5v424h62v-429q0 -91 47 -134.5t129 -43.5t129 43.5t47 134.5v429h62zM219 733l196 137l36 -57l-210 -114z" />
    <glyph glyph-name="Ucircumflex" unicode="&#xdb;" horiz-adv-x="664" 
d="M570 650v-424q0 -124 -64 -182.5t-174 -58.5t-174 58.5t-64 182.5v424h62v-429q0 -91 47 -134.5t129 -43.5t129 43.5t47 134.5v429h62zM184 738l142 104l147 -104l-21 -35l-126 70l-119 -70z" />
    <glyph glyph-name="Udieresis" unicode="&#xdc;" horiz-adv-x="664" 
d="M570 650v-424q0 -124 -64 -182.5t-174 -58.5t-174 58.5t-64 182.5v424h62v-429q0 -91 47 -134.5t129 -43.5t129 43.5t47 134.5v429h62zM459 765q0 -20 -14.5 -33.5t-34.5 -13.5t-34.5 13.5t-14.5 33.5v2q0 22 14.5 34t34.5 12t34.5 -12t14.5 -34v-2zM295 765
q0 -20 -14.5 -33.5t-34.5 -13.5t-34.5 13.5t-14.5 33.5v2q0 22 14.5 34t34.5 12t34.5 -12t14.5 -34v-2z" />
    <glyph glyph-name="Yacute" unicode="&#xdd;" horiz-adv-x="619" 
d="M279 0v260l-247 377v13h63l216 -336l214 336h61v-13l-245 -377v-260h-62zM198 735l196 137l36 -57l-210 -114z" />
    <glyph glyph-name="Thorn" unicode="&#xde;" horiz-adv-x="595" 
d="M550 312q0 -51 -15.5 -89.5t-43 -65t-66 -40t-83.5 -13.5h-181v-104h-62v650h62v-112h180q45 0 83.5 -13.5t66.5 -40t43.5 -65t15.5 -89.5v-18zM350 162q36 0 61.5 13t42 35t24.5 50.5t8 58.5q0 31 -7.5 60t-24 51.5t-42.5 36t-62 13.5h-189v-318h189z" />
    <glyph glyph-name="germandbls" unicode="&#xdf;" horiz-adv-x="604" 
d="M488 516q0 -38 -18.5 -77.5t-49.5 -65.5v-1q26 -9 48.5 -27t39.5 -41.5t27 -51t10 -57.5v-10q0 -90 -52 -144t-155 -54q-19 0 -45.5 3.5t-51.5 11.5v57h16q20 -9 37.5 -13t44.5 -4q77 0 110.5 38.5t33.5 106.5q0 63 -37.5 104.5t-121.5 41.5h-62v55h36q41 0 66 11.5
t38.5 30.5t18 43.5t4.5 49.5q0 62 -33.5 98.5t-104.5 36.5q-42 0 -69 -11.5t-42.5 -33t-21 -51.5t-5.5 -66v-496h-60v516q0 42 11 78t35 63t61.5 42.5t90.5 15.5q44 0 80.5 -12.5t63.5 -36.5t42 -58.5t15 -78.5v-13z" />
    <glyph glyph-name="agrave" unicode="&#xe0;" horiz-adv-x="525" 
d="M238 41q26 0 52.5 10.5t47.5 30t34.5 46.5t13.5 60v44q-63 21 -125 21q-27 0 -53.5 -6t-46.5 -19t-32.5 -33.5t-12.5 -49.5q0 -53 35 -78.5t87 -25.5zM382 56q-25 -32 -68 -52t-86 -20q-39 0 -74 13.5t-58 37.5q-42 42 -42 101v6q0 40 15.5 70.5t43.5 51.5t66.5 31.5
t83.5 10.5q32 0 63 -3.5t60 -14.5v33q0 64 -27 101.5t-98 37.5q-23 0 -45 -4.5t-39 -15t-27.5 -28.5t-11.5 -44h-61v6q5 39 21 66t40.5 43.5t55.5 24t65 7.5q41 0 75.5 -9.5t59.5 -32t38.5 -59.5t13.5 -92v-322h-43q-5 14 -9.5 28t-9.5 28h-2zM349 549l-210 114l36 57
l196 -137z" />
    <glyph glyph-name="aacute" unicode="&#xe1;" horiz-adv-x="525" 
d="M238 41q26 0 52.5 10.5t47.5 30t34.5 46.5t13.5 60v44q-63 21 -125 21q-27 0 -53.5 -6t-46.5 -19t-32.5 -33.5t-12.5 -49.5q0 -53 35 -78.5t87 -25.5zM382 56q-25 -32 -68 -52t-86 -20q-39 0 -74 13.5t-58 37.5q-42 42 -42 101v6q0 40 15.5 70.5t43.5 51.5t66.5 31.5
t83.5 10.5q32 0 63 -3.5t60 -14.5v33q0 64 -27 101.5t-98 37.5q-23 0 -45 -4.5t-39 -15t-27.5 -28.5t-11.5 -44h-61v6q5 39 21 66t40.5 43.5t55.5 24t65 7.5q41 0 75.5 -9.5t59.5 -32t38.5 -59.5t13.5 -92v-322h-43q-5 14 -9.5 28t-9.5 28h-2zM135 583l196 137l36 -57
l-210 -114z" />
    <glyph glyph-name="acircumflex" unicode="&#xe2;" horiz-adv-x="525" 
d="M238 41q26 0 52.5 10.5t47.5 30t34.5 46.5t13.5 60v44q-63 21 -125 21q-27 0 -53.5 -6t-46.5 -19t-32.5 -33.5t-12.5 -49.5q0 -53 35 -78.5t87 -25.5zM382 56q-25 -32 -68 -52t-86 -20q-39 0 -74 13.5t-58 37.5q-42 42 -42 101v6q0 40 15.5 70.5t43.5 51.5t66.5 31.5
t83.5 10.5q32 0 63 -3.5t60 -14.5v33q0 64 -27 101.5t-98 37.5q-23 0 -45 -4.5t-39 -15t-27.5 -28.5t-11.5 -44h-61v6q5 39 21 66t40.5 43.5t55.5 24t65 7.5q41 0 75.5 -9.5t59.5 -32t38.5 -59.5t13.5 -92v-322h-43q-5 14 -9.5 28t-9.5 28h-2zM115 588l142 104l147 -104
l-21 -35l-126 70l-119 -70z" />
    <glyph glyph-name="atilde" unicode="&#xe3;" horiz-adv-x="525" 
d="M238 41q26 0 52.5 10.5t47.5 30t34.5 46.5t13.5 60v44q-63 21 -125 21q-27 0 -53.5 -6t-46.5 -19t-32.5 -33.5t-12.5 -49.5q0 -53 35 -78.5t87 -25.5zM382 56q-25 -32 -68 -52t-86 -20q-39 0 -74 13.5t-58 37.5q-42 42 -42 101v6q0 40 15.5 70.5t43.5 51.5t66.5 31.5
t83.5 10.5q32 0 63 -3.5t60 -14.5v33q0 64 -27 101.5t-98 37.5q-23 0 -45 -4.5t-39 -15t-27.5 -28.5t-11.5 -44h-61v6q5 39 21 66t40.5 43.5t55.5 24t65 7.5q41 0 75.5 -9.5t59.5 -32t38.5 -59.5t13.5 -92v-322h-43q-5 14 -9.5 28t-9.5 28h-2zM101 565q0 18 5.5 35.5
t16.5 32t28 23.5t40 9t39 -7.5t30 -16t26.5 -16t27.5 -7.5q17 0 30.5 10t13.5 42h47q0 -18 -5.5 -35.5t-16.5 -32t-28 -23.5t-40 -9q-22 0 -38.5 7.5t-30.5 16t-26.5 16t-27.5 7.5q-17 0 -30.5 -10t-13.5 -42h-47z" />
    <glyph glyph-name="adieresis" unicode="&#xe4;" horiz-adv-x="525" 
d="M238 41q26 0 52.5 10.5t47.5 30t34.5 46.5t13.5 60v44q-63 21 -125 21q-27 0 -53.5 -6t-46.5 -19t-32.5 -33.5t-12.5 -49.5q0 -53 35 -78.5t87 -25.5zM382 56q-25 -32 -68 -52t-86 -20q-39 0 -74 13.5t-58 37.5q-42 42 -42 101v6q0 40 15.5 70.5t43.5 51.5t66.5 31.5
t83.5 10.5q32 0 63 -3.5t60 -14.5v33q0 64 -27 101.5t-98 37.5q-23 0 -45 -4.5t-39 -15t-27.5 -28.5t-11.5 -44h-61v6q5 39 21 66t40.5 43.5t55.5 24t65 7.5q41 0 75.5 -9.5t59.5 -32t38.5 -59.5t13.5 -92v-322h-43q-5 14 -9.5 28t-9.5 28h-2zM384 615q0 -20 -14.5 -33.5
t-34.5 -13.5t-34.5 13.5t-14.5 33.5v2q0 22 14.5 34t34.5 12t34.5 -12t14.5 -34v-2zM220 615q0 -20 -14.5 -33.5t-34.5 -13.5t-34.5 13.5t-14.5 33.5v2q0 22 14.5 34t34.5 12t34.5 -12t14.5 -34v-2z" />
    <glyph glyph-name="aring" unicode="&#xe5;" horiz-adv-x="525" 
d="M304 578q0 20 -12 33.5t-32 13.5q-19 0 -31.5 -13.5t-12.5 -33.5t12.5 -34.5t31.5 -14.5q20 0 32 14.5t12 34.5zM238 41q26 0 52.5 10.5t47.5 30t34.5 46.5t13.5 60v44q-63 21 -125 21q-27 0 -53.5 -6t-46.5 -19t-32.5 -33.5t-12.5 -49.5q0 -53 35 -78.5t87 -25.5z
M382 56q-25 -32 -68 -52t-86 -20q-39 0 -74 13.5t-58 37.5q-42 42 -42 101v6q0 40 15.5 70.5t43.5 51.5t66.5 31.5t83.5 10.5q32 0 63 -3.5t60 -14.5v33q0 64 -27 101.5t-98 37.5q-23 0 -45 -4.5t-39 -15t-27.5 -28.5t-11.5 -44h-61v6q7 61 41 92.5t82 42.5q-14 13 -22 30.5
t-8 37.5q0 38 26 63.5t64 25.5q39 0 65 -25.5t26 -63.5q0 -20 -8.5 -38t-22.5 -30q58 -13 92 -56t34 -131v-322h-43q-5 14 -9.5 28t-9.5 28h-2z" />
    <glyph glyph-name="ae" unicode="&#xe6;" horiz-adv-x="862" 
d="M737 287q-1 31 -8.5 62t-24 55.5t-43 40t-66.5 15.5q-71 0 -108.5 -45t-47.5 -128h298zM594 -15q-64 0 -111 28.5t-73 81.5q-33 -60 -81 -85t-99 -25q-38 0 -75 13t-59 37q-42 42 -42 101v6q0 40 15.5 70.5t42.5 51.5t64.5 31.5t81.5 10.5q30 0 60 -3.5t58 -14.5v20
q0 37 -7 68t-26 50q-16 16 -37.5 25t-54.5 9q-21 0 -40.5 -4.5t-35.5 -15t-26 -28.5t-11 -44h-61v6q5 39 21 66t40 43.5t54 24t62 7.5q60 0 102.5 -26.5t59.5 -86.5q24 54 68 83.5t108 29.5q57 0 96.5 -22.5t64 -59.5t35.5 -83.5t11 -94.5v-9.5t-1 -12.5h-360
q2 -41 12.5 -76.5t30 -61t47.5 -40t65 -14.5q53 0 86.5 25.5t45.5 68.5h61q-16 -70 -67.5 -110t-124.5 -40zM233 41q25 0 50.5 9.5t46 27.5t33.5 45t13 63v46q-61 21 -120 21q-26 0 -51.5 -6t-45 -19t-31.5 -33.5t-12 -49.5q0 -53 33.5 -78.5t83.5 -25.5z" />
    <glyph glyph-name="ccedilla" unicode="&#xe7;" horiz-adv-x="556" 
d="M249 -180q-40 0 -71 11v46h10q17 -5 33.5 -7t25.5 -2q53 0 53 29q0 17 -13.5 24t-34.5 5l-3 6l20 54q-96 10 -151 78.5t-55 180.5v11q0 59 16.5 107t46.5 81.5t73 52t97 18.5q43 0 80 -11.5t65 -33t46 -53.5t22 -73v-6h-61q-10 60 -49 90.5t-102 30.5q-43 0 -75 -15.5
t-53.5 -43t-32.5 -66t-11 -83.5t11 -83.5t32.5 -66.5t53.5 -44t74 -16q68 0 106 32t46 92h61v-6q-9 -77 -61.5 -122t-128.5 -51l-10 -30q17 -5 34 -19.5t17 -38.5q0 -21 -9.5 -35.5t-25 -24t-35.5 -14t-41 -4.5z" />
    <glyph glyph-name="egrave" unicode="&#xe8;" horiz-adv-x="579" 
d="M503 135q-17 -70 -72.5 -110t-133.5 -40q-54 0 -97 18t-73.5 52t-47 82t-16.5 108v11q0 59 16 107t46 81.5t73 52t97 18.5q61 0 103 -22.5t68.5 -59.5t38 -83.5t11.5 -94.5v-9.5t-1 -12.5h-390q2 -41 13.5 -76.5t33 -61t53 -40t71.5 -14.5q58 0 94.5 25t51.5 69h61z
M454 287q-4 30 -12.5 61t-26.5 55.5t-46.5 40.5t-72.5 16q-78 0 -120 -46.5t-50 -126.5h328zM384 549l-210 114l36 57l196 -137z" />
    <glyph glyph-name="eacute" unicode="&#xe9;" horiz-adv-x="579" 
d="M503 135q-17 -70 -72.5 -110t-133.5 -40q-54 0 -97 18t-73.5 52t-47 82t-16.5 108v11q0 59 16 107t46 81.5t73 52t97 18.5q61 0 103 -22.5t68.5 -59.5t38 -83.5t11.5 -94.5v-9.5t-1 -12.5h-390q2 -41 13.5 -76.5t33 -61t53 -40t71.5 -14.5q58 0 94.5 25t51.5 69h61z
M454 287q-4 30 -12.5 61t-26.5 55.5t-46.5 40.5t-72.5 16q-78 0 -120 -46.5t-50 -126.5h328zM170 583l196 137l36 -57l-210 -114z" />
    <glyph glyph-name="ecircumflex" unicode="&#xea;" horiz-adv-x="579" 
d="M503 135q-17 -70 -72.5 -110t-133.5 -40q-54 0 -97 18t-73.5 52t-47 82t-16.5 108v11q0 59 16 107t46 81.5t73 52t97 18.5q61 0 103 -22.5t68.5 -59.5t38 -83.5t11.5 -94.5v-9.5t-1 -12.5h-390q2 -41 13.5 -76.5t33 -61t53 -40t71.5 -14.5q58 0 94.5 25t51.5 69h61z
M454 287q-4 30 -12.5 61t-26.5 55.5t-46.5 40.5t-72.5 16q-78 0 -120 -46.5t-50 -126.5h328zM134 588l142 104l147 -104l-21 -35l-126 70l-119 -70z" />
    <glyph glyph-name="edieresis" unicode="&#xeb;" horiz-adv-x="579" 
d="M503 135q-17 -70 -72.5 -110t-133.5 -40q-54 0 -97 18t-73.5 52t-47 82t-16.5 108v11q0 59 16 107t46 81.5t73 52t97 18.5q61 0 103 -22.5t68.5 -59.5t38 -83.5t11.5 -94.5v-9.5t-1 -12.5h-390q2 -41 13.5 -76.5t33 -61t53 -40t71.5 -14.5q58 0 94.5 25t51.5 69h61z
M454 287q-4 30 -12.5 61t-26.5 55.5t-46.5 40.5t-72.5 16q-78 0 -120 -46.5t-50 -126.5h328zM411 615q0 -20 -14.5 -33.5t-34.5 -13.5t-34.5 13.5t-14.5 33.5v2q0 22 14.5 34t34.5 12t34.5 -12t14.5 -34v-2zM247 615q0 -20 -14.5 -33.5t-34.5 -13.5t-34.5 13.5t-14.5 33.5v2
q0 22 14.5 34t34.5 12t34.5 -12t14.5 -34v-2z" />
    <glyph glyph-name="igrave" unicode="&#xec;" horiz-adv-x="232" 
d="M86 0v500h60v-500h-60zM218 549l-210 114l36 57l196 -137z" />
    <glyph glyph-name="iacute" unicode="&#xed;" horiz-adv-x="232" 
d="M86 0v500h60v-500h-60zM4 583l196 137l36 -57l-210 -114z" />
    <glyph glyph-name="icircumflex" unicode="&#xee;" horiz-adv-x="232" 
d="M86 0v500h60v-500h-60zM-32 588l142 104l147 -104l-21 -35l-126 70l-119 -70z" />
    <glyph glyph-name="idieresis" unicode="&#xef;" horiz-adv-x="232" 
d="M86 0v500h60v-500h-60zM244 615q0 -20 -14.5 -33.5t-34.5 -13.5t-34.5 13.5t-14.5 33.5v2q0 22 14.5 34t34.5 12t34.5 -12t14.5 -34v-2zM80 615q0 -20 -14.5 -33.5t-34.5 -13.5t-34.5 13.5t-14.5 33.5v2q0 22 14.5 34t34.5 12t34.5 -12t14.5 -34v-2z" />
    <glyph glyph-name="eth" unicode="&#xf0;" horiz-adv-x="597" 
d="M189 542l-24 40l76 48q-17 15 -38.5 30.5t-40.5 26.5v13h71q11 -7 27 -19t29 -21l65 41l24 -39l-52 -32q38 -32 75 -74.5t66.5 -92t48 -103.5t18.5 -108v-26q0 -59 -20.5 -104.5t-54.5 -76t-78.5 -46t-93.5 -15.5q-46 0 -88 16t-73.5 46.5t-50 76t-18.5 104.5v16
q0 60 18.5 105.5t50 75.5t73 45.5t87.5 15.5q33 0 65.5 -9.5t61.5 -26.5h2q-12 19 -27.5 39.5t-33.5 41t-37 38t-37 30.5zM288 39q86 0 135 51t49 146t-49 145.5t-135 50.5q-79 0 -125 -50.5t-46 -147.5q0 -94 46 -144.5t125 -50.5z" />
    <glyph glyph-name="ntilde" unicode="&#xf1;" horiz-adv-x="570" 
d="M149 0h-60v500h43l17 -57h2q26 34 67 53t85 19q91 0 138 -47q26 -26 38 -64.5t12 -89.5v-314h-60v317q0 36 -7.5 64t-26.5 47q-31 31 -97 31q-36 0 -64.5 -11t-52.5 -35q-18 -18 -26 -45t-8 -71v-297zM148 565q0 18 5.5 35.5t16.5 32t28 23.5t40 9t39 -7.5t30 -16
t26.5 -16t27.5 -7.5q17 0 30.5 10t13.5 42h47q0 -18 -5.5 -35.5t-16.5 -32t-28 -23.5t-40 -9q-22 0 -38.5 7.5t-30.5 16t-26.5 16t-27.5 7.5q-17 0 -30.5 -10t-13.5 -42h-47z" />
    <glyph glyph-name="ograve" unicode="&#xf2;" horiz-adv-x="604" 
d="M63 258q0 62 18.5 110t50.5 80.5t75.5 49.5t93.5 17q51 0 95 -17t76 -49.5t50.5 -80.5t18.5 -110v-14q0 -61 -18.5 -109.5t-50.5 -81.5t-75.5 -50.5t-93.5 -17.5q-51 0 -95 17.5t-76 50.5t-50.5 81.5t-18.5 109.5v14zM302 41q44 0 77 16t55 44.5t33.5 67t11.5 82.5
q0 45 -11.5 83t-33.5 65.5t-55 43.5t-77 16q-43 0 -76.5 -16t-55.5 -43.5t-33.5 -65.5t-11.5 -83q0 -44 11.5 -82.5t33.5 -67t55.5 -44.5t76.5 -16zM399 549l-210 114l36 57l196 -137z" />
    <glyph glyph-name="oacute" unicode="&#xf3;" horiz-adv-x="604" 
d="M63 258q0 62 18.5 110t50.5 80.5t75.5 49.5t93.5 17q51 0 95 -17t76 -49.5t50.5 -80.5t18.5 -110v-14q0 -61 -18.5 -109.5t-50.5 -81.5t-75.5 -50.5t-93.5 -17.5q-51 0 -95 17.5t-76 50.5t-50.5 81.5t-18.5 109.5v14zM302 41q44 0 77 16t55 44.5t33.5 67t11.5 82.5
q0 45 -11.5 83t-33.5 65.5t-55 43.5t-77 16q-43 0 -76.5 -16t-55.5 -43.5t-33.5 -65.5t-11.5 -83q0 -44 11.5 -82.5t33.5 -67t55.5 -44.5t76.5 -16zM185 583l196 137l36 -57l-210 -114z" />
    <glyph glyph-name="ocircumflex" unicode="&#xf4;" horiz-adv-x="604" 
d="M63 258q0 62 18.5 110t50.5 80.5t75.5 49.5t93.5 17q51 0 95 -17t76 -49.5t50.5 -80.5t18.5 -110v-14q0 -61 -18.5 -109.5t-50.5 -81.5t-75.5 -50.5t-93.5 -17.5q-51 0 -95 17.5t-76 50.5t-50.5 81.5t-18.5 109.5v14zM302 41q44 0 77 16t55 44.5t33.5 67t11.5 82.5
q0 45 -11.5 83t-33.5 65.5t-55 43.5t-77 16q-43 0 -76.5 -16t-55.5 -43.5t-33.5 -65.5t-11.5 -83q0 -44 11.5 -82.5t33.5 -67t55.5 -44.5t76.5 -16zM159 588l142 104l147 -104l-21 -35l-126 70l-119 -70z" />
    <glyph glyph-name="otilde" unicode="&#xf5;" horiz-adv-x="604" 
d="M63 258q0 62 18.5 110t50.5 80.5t75.5 49.5t93.5 17q51 0 95 -17t76 -49.5t50.5 -80.5t18.5 -110v-14q0 -61 -18.5 -109.5t-50.5 -81.5t-75.5 -50.5t-93.5 -17.5q-51 0 -95 17.5t-76 50.5t-50.5 81.5t-18.5 109.5v14zM302 41q44 0 77 16t55 44.5t33.5 67t11.5 82.5
q0 45 -11.5 83t-33.5 65.5t-55 43.5t-77 16q-43 0 -76.5 -16t-55.5 -43.5t-33.5 -65.5t-11.5 -83q0 -44 11.5 -82.5t33.5 -67t55.5 -44.5t76.5 -16zM151 565q0 18 5.5 35.5t16.5 32t28 23.5t40 9t39 -7.5t30 -16t26.5 -16t27.5 -7.5q17 0 30.5 10t13.5 42h47
q0 -18 -5.5 -35.5t-16.5 -32t-28 -23.5t-40 -9q-22 0 -38.5 7.5t-30.5 16t-26.5 16t-27.5 7.5q-17 0 -30.5 -10t-13.5 -42h-47z" />
    <glyph glyph-name="odieresis" unicode="&#xf6;" horiz-adv-x="604" 
d="M63 258q0 62 18.5 110t50.5 80.5t75.5 49.5t93.5 17q51 0 95 -17t76 -49.5t50.5 -80.5t18.5 -110v-14q0 -61 -18.5 -109.5t-50.5 -81.5t-75.5 -50.5t-93.5 -17.5q-51 0 -95 17.5t-76 50.5t-50.5 81.5t-18.5 109.5v14zM302 41q44 0 77 16t55 44.5t33.5 67t11.5 82.5
q0 45 -11.5 83t-33.5 65.5t-55 43.5t-77 16q-43 0 -76.5 -16t-55.5 -43.5t-33.5 -65.5t-11.5 -83q0 -44 11.5 -82.5t33.5 -67t55.5 -44.5t76.5 -16zM434 615q0 -20 -14.5 -33.5t-34.5 -13.5t-34.5 13.5t-14.5 33.5v2q0 22 14.5 34t34.5 12t34.5 -12t14.5 -34v-2zM270 615
q0 -20 -14.5 -33.5t-34.5 -13.5t-34.5 13.5t-14.5 33.5v2q0 22 14.5 34t34.5 12t34.5 -12t14.5 -34v-2z" />
    <glyph glyph-name="divide" unicode="&#xf7;" horiz-adv-x="595" 
d="M297 425q-22 0 -36 13.5t-14 32.5q0 21 14 33.5t36 12.5q20 0 34 -13t14 -33t-14 -33t-34 -13zM52 356h491v-55h-491v55zM297 140q-20 0 -34 13.5t-14 33.5t13 33t35 13q20 0 34.5 -13t14.5 -33t-14.5 -33.5t-34.5 -13.5z" />
    <glyph glyph-name="oslash" unicode="&#xf8;" horiz-adv-x="604" 
d="M125 251q0 -59 20 -106.5t58 -74.5l163 378q-30 11 -64 11q-43 0 -76.5 -16t-55.5 -43.5t-33.5 -65.5t-11.5 -83zM302 41q44 0 77 16t55 44.5t33.5 67t11.5 82.5q0 54 -16.5 97.5t-48.5 71.5l-160 -373q23 -6 48 -6zM303 -15q-40 0 -71 10l-26 -60h-55v13l29 68
q-54 30 -85.5 88t-31.5 140v14q0 62 18.5 110t50.5 80.5t75.5 49.5t93.5 17q47 0 87 -14l28 64h54v-14l-32 -75q48 -31 75.5 -86t27.5 -132v-14q0 -61 -18.5 -109.5t-50.5 -81.5t-75.5 -50.5t-93.5 -17.5z" />
    <glyph glyph-name="ugrave" unicode="&#xf9;" horiz-adv-x="546" 
d="M134 500v-312q0 -41 12.5 -69t32.5 -45.5t45 -25.5t49 -8t49 8t45 25.5t32.5 45.5t12.5 69v312h60v-312q0 -57 -18 -96t-46.5 -63t-64 -34.5t-70.5 -10.5t-70.5 10.5t-64 34.5t-46.5 63t-18 96v312h60zM339 549l-210 114l36 57l196 -137z" />
    <glyph glyph-name="uacute" unicode="&#xfa;" horiz-adv-x="546" 
d="M134 500v-312q0 -41 12.5 -69t32.5 -45.5t45 -25.5t49 -8t49 8t45 25.5t32.5 45.5t12.5 69v312h60v-312q0 -57 -18 -96t-46.5 -63t-64 -34.5t-70.5 -10.5t-70.5 10.5t-64 34.5t-46.5 63t-18 96v312h60zM175 583l196 137l36 -57l-210 -114z" />
    <glyph glyph-name="ucircumflex" unicode="&#xfb;" horiz-adv-x="546" 
d="M134 500v-312q0 -41 12.5 -69t32.5 -45.5t45 -25.5t49 -8t49 8t45 25.5t32.5 45.5t12.5 69v312h60v-312q0 -57 -18 -96t-46.5 -63t-64 -34.5t-70.5 -10.5t-70.5 10.5t-64 34.5t-46.5 63t-18 96v312h60zM128 588l142 104l147 -104l-21 -35l-126 70l-119 -70z" />
    <glyph glyph-name="udieresis" unicode="&#xfc;" horiz-adv-x="546" 
d="M134 500v-312q0 -41 12.5 -69t32.5 -45.5t45 -25.5t49 -8t49 8t45 25.5t32.5 45.5t12.5 69v312h60v-312q0 -57 -18 -96t-46.5 -63t-64 -34.5t-70.5 -10.5t-70.5 10.5t-64 34.5t-46.5 63t-18 96v312h60zM404 615q0 -20 -14.5 -33.5t-34.5 -13.5t-34.5 13.5t-14.5 33.5v2
q0 22 14.5 34t34.5 12t34.5 -12t14.5 -34v-2zM240 615q0 -20 -14.5 -33.5t-34.5 -13.5t-34.5 13.5t-14.5 33.5v2q0 22 14.5 34t34.5 12t34.5 -12t14.5 -34v-2z" />
    <glyph glyph-name="yacute" unicode="&#xfd;" horiz-adv-x="507" 
d="M202 -180h-61v11l79 183l-200 475v11h61l171 -418h2l173 418h60v-11zM148 588l196 137l36 -57l-210 -114z" />
    <glyph glyph-name="thorn" unicode="&#xfe;" horiz-adv-x="625" 
d="M319 41q48 0 82.5 16t56 44.5t32 67t10.5 83.5q0 43 -11 80.5t-33.5 66t-56.5 45t-80 16.5q-45 0 -78 -17t-54 -45.5t-31 -66t-10 -78.5q0 -42 9.5 -80t30.5 -67.5t54 -47t79 -17.5zM149 700v-265h2q11 18 29.5 33t42 25.5t50 16t53.5 5.5q44 0 86 -15t75.5 -46.5
t54 -79.5t20.5 -114v-19q0 -56 -15.5 -103t-46.5 -81t-77 -53t-106 -19q-52 0 -96 21.5t-70 58.5h-2v-246h-60v881h60z" />
    <glyph glyph-name="ydieresis" unicode="&#xff;" horiz-adv-x="507" 
d="M202 -180h-61v11l79 183l-200 475v11h61l171 -418h2l173 418h60v-11zM384 615q0 -20 -14.5 -33.5t-34.5 -13.5t-34.5 13.5t-14.5 33.5v2q0 22 14.5 34t34.5 12t34.5 -12t14.5 -34v-2zM220 615q0 -20 -14.5 -33.5t-34.5 -13.5t-34.5 13.5t-14.5 33.5v2q0 22 14.5 34
t34.5 12t34.5 -12t14.5 -34v-2z" />
    <glyph glyph-name="Amacron" unicode="&#x100;" horiz-adv-x="656" 
d="M183 236h287l-142 347h-2zM494 178h-335l-74 -178h-55v13l265 637h66l266 -637v-13h-59zM199 770h263v-53h-263v53z" />
    <glyph glyph-name="amacron" unicode="&#x101;" horiz-adv-x="525" 
d="M238 41q26 0 52.5 10.5t47.5 30t34.5 46.5t13.5 60v44q-63 21 -125 21q-27 0 -53.5 -6t-46.5 -19t-32.5 -33.5t-12.5 -49.5q0 -53 35 -78.5t87 -25.5zM382 56q-25 -32 -68 -52t-86 -20q-39 0 -74 13.5t-58 37.5q-42 42 -42 101v6q0 40 15.5 70.5t43.5 51.5t66.5 31.5
t83.5 10.5q32 0 63 -3.5t60 -14.5v33q0 64 -27 101.5t-98 37.5q-23 0 -45 -4.5t-39 -15t-27.5 -28.5t-11.5 -44h-61v6q5 39 21 66t40.5 43.5t55.5 24t65 7.5q41 0 75.5 -9.5t59.5 -32t38.5 -59.5t13.5 -92v-322h-43q-5 14 -9.5 28t-9.5 28h-2zM126 633h263v-53h-263v53z" />
    <glyph glyph-name="Abreve" unicode="&#x102;" horiz-adv-x="656" 
d="M183 236h287l-142 347h-2zM494 178h-335l-74 -178h-55v13l265 637h66l266 -637v-13h-59zM477 800q-7 -49 -48.5 -76.5t-99.5 -27.5t-98.5 27.5t-47.5 76.5h60q8 -31 32.5 -45t54.5 -14t54.5 14t32.5 45h60z" />
    <glyph glyph-name="abreve" unicode="&#x103;" horiz-adv-x="525" 
d="M238 41q26 0 52.5 10.5t47.5 30t34.5 46.5t13.5 60v44q-63 21 -125 21q-27 0 -53.5 -6t-46.5 -19t-32.5 -33.5t-12.5 -49.5q0 -53 35 -78.5t87 -25.5zM382 56q-25 -32 -68 -52t-86 -20q-39 0 -74 13.5t-58 37.5q-42 42 -42 101v6q0 40 15.5 70.5t43.5 51.5t66.5 31.5
t83.5 10.5q32 0 63 -3.5t60 -14.5v33q0 64 -27 101.5t-98 37.5q-23 0 -45 -4.5t-39 -15t-27.5 -28.5t-11.5 -44h-61v6q5 39 21 66t40.5 43.5t55.5 24t65 7.5q41 0 75.5 -9.5t59.5 -32t38.5 -59.5t13.5 -92v-322h-43q-5 14 -9.5 28t-9.5 28h-2zM410 662q-7 -49 -48.5 -76.5
t-99.5 -27.5t-98.5 27.5t-47.5 76.5h60q8 -31 32.5 -45t54.5 -14t54.5 14t32.5 45h60z" />
    <glyph glyph-name="Aogonek" unicode="&#x104;" horiz-adv-x="656" 
d="M183 236h287l-142 347h-2zM649 -168q-14 -7 -34 -9.5t-36 -2.5q-26 0 -43.5 7t-28.5 18.5t-15.5 25t-4.5 26.5q0 14 5 30t15 30.5t25 26.5t35 18l-73 176h-335l-74 -178h-55v13l265 637h66l266 -637v-13q-48 -22 -64.5 -47.5t-16.5 -45.5q0 -18 12 -28.5t33 -10.5
q11 0 23 2t26 7h9v-45z" />
    <glyph glyph-name="aogonek" unicode="&#x105;" horiz-adv-x="525" 
d="M468 -168q-14 -7 -34 -9.5t-36 -2.5q-26 0 -43.5 7t-28.5 18.5t-15.5 25t-4.5 26.5q0 42 27.5 72.5t64.5 44.5q-4 11 -7 21t-7 21h-2q-25 -32 -68 -52t-86 -20q-39 0 -74 13.5t-58 37.5q-42 42 -42 101v6q0 40 15.5 70.5t43.5 51.5t66.5 31.5t83.5 10.5q32 0 63 -3.5
t60 -14.5v20q0 37 -7 68t-27 50q-16 17 -38.5 25.5t-54.5 8.5q-22 0 -43.5 -4.5t-38.5 -15t-27.5 -28.5t-11.5 -44h-61v6q5 39 21 66t40.5 43.5t55.5 24t65 7.5q41 0 75.5 -10t59.5 -33.5t38.5 -61t13.5 -92.5v-318q-48 -22 -64.5 -47.5t-16.5 -45.5q0 -18 12 -28.5
t33 -10.5q11 0 23 2t26 7h9v-45zM238 41q26 0 52.5 10.5t47.5 30t34.5 46.5t13.5 60v44q-63 21 -125 21q-27 0 -53.5 -6t-46.5 -19t-32.5 -33.5t-12.5 -49.5q0 -53 35 -78.5t87 -25.5z" />
    <glyph glyph-name="Cacute" unicode="&#x106;" horiz-adv-x="694" 
d="M362 44q50 0 87.5 14t64 38.5t41.5 56.5t21 68h63v-6q-6 -48 -27.5 -89.5t-56.5 -73t-83.5 -49.5t-108.5 -18q-62 0 -117 24t-95.5 67.5t-64 105t-23.5 136.5v24q0 72 23 131t63.5 102t95 66.5t116.5 23.5q58 0 106.5 -17t84 -46.5t57.5 -69t27 -85.5v-6h-61
q-5 33 -20 62.5t-41.5 52t-64 36t-87.5 13.5q-54 0 -97.5 -21.5t-74 -58.5t-47 -87t-16.5 -107q0 -60 16.5 -112.5t47 -91t74 -61t97.5 -22.5zM223 733l196 137l36 -57l-210 -114z" />
    <glyph glyph-name="cacute" unicode="&#x107;" horiz-adv-x="556" 
d="M63 256q0 59 16.5 107t46.5 81.5t73 52t97 18.5q43 0 80 -11.5t65 -33t46 -53.5t22 -73v-6h-61q-10 60 -49 90.5t-102 30.5q-43 0 -75 -15.5t-53.5 -43t-32.5 -66t-11 -83.5t11 -83.5t32.5 -66.5t53.5 -44t74 -16q68 0 106 32t46 92h61v-6q-5 -41 -23 -73t-46 -54.5
t-64.5 -34.5t-78.5 -12q-54 0 -97 18t-73.5 52t-47 82t-16.5 108v11zM168 583l196 137l36 -57l-210 -114z" />
    <glyph glyph-name="Ccircumflex" unicode="&#x108;" horiz-adv-x="694" 
d="M362 44q50 0 87.5 14t64 38.5t41.5 56.5t21 68h63v-6q-6 -48 -27.5 -89.5t-56.5 -73t-83.5 -49.5t-108.5 -18q-62 0 -117 24t-95.5 67.5t-64 105t-23.5 136.5v24q0 72 23 131t63.5 102t95 66.5t116.5 23.5q58 0 106.5 -17t84 -46.5t57.5 -69t27 -85.5v-6h-61
q-5 33 -20 62.5t-41.5 52t-64 36t-87.5 13.5q-54 0 -97.5 -21.5t-74 -58.5t-47 -87t-16.5 -107q0 -60 16.5 -112.5t47 -91t74 -61t97.5 -22.5zM217 738l142 104l147 -104l-21 -35l-126 70l-119 -70z" />
    <glyph glyph-name="ccircumflex" unicode="&#x109;" horiz-adv-x="556" 
d="M63 256q0 59 16.5 107t46.5 81.5t73 52t97 18.5q43 0 80 -11.5t65 -33t46 -53.5t22 -73v-6h-61q-10 60 -49 90.5t-102 30.5q-43 0 -75 -15.5t-53.5 -43t-32.5 -66t-11 -83.5t11 -83.5t32.5 -66.5t53.5 -44t74 -16q68 0 106 32t46 92h61v-6q-5 -41 -23 -73t-46 -54.5
t-64.5 -34.5t-78.5 -12q-54 0 -97 18t-73.5 52t-47 82t-16.5 108v11zM144 588l142 104l147 -104l-21 -35l-126 70l-119 -70z" />
    <glyph glyph-name="Cdotaccent" unicode="&#x10a;" horiz-adv-x="694" 
d="M362 44q50 0 87.5 14t64 38.5t41.5 56.5t21 68h63v-6q-6 -48 -27.5 -89.5t-56.5 -73t-83.5 -49.5t-108.5 -18q-62 0 -117 24t-95.5 67.5t-64 105t-23.5 136.5v24q0 72 23 131t63.5 102t95 66.5t116.5 23.5q58 0 106.5 -17t84 -46.5t57.5 -69t27 -85.5v-6h-61
q-5 33 -20 62.5t-41.5 52t-64 36t-87.5 13.5q-54 0 -97.5 -21.5t-74 -58.5t-47 -87t-16.5 -107q0 -60 16.5 -112.5t47 -91t74 -61t97.5 -22.5zM398 758q0 -20 -14.5 -33.5t-34.5 -13.5t-34.5 13.5t-14.5 33.5v2q0 22 14.5 34t34.5 12t34.5 -12t14.5 -34v-2z" />
    <glyph glyph-name="cdotaccent" unicode="&#x10b;" horiz-adv-x="556" 
d="M63 256q0 59 16.5 107t46.5 81.5t73 52t97 18.5q43 0 80 -11.5t65 -33t46 -53.5t22 -73v-6h-61q-10 60 -49 90.5t-102 30.5q-43 0 -75 -15.5t-53.5 -43t-32.5 -66t-11 -83.5t11 -83.5t32.5 -66.5t53.5 -44t74 -16q68 0 106 32t46 92h61v-6q-5 -41 -23 -73t-46 -54.5
t-64.5 -34.5t-78.5 -12q-54 0 -97 18t-73.5 52t-47 82t-16.5 108v11zM335 611q0 -20 -14.5 -33.5t-34.5 -13.5t-34.5 13.5t-14.5 33.5v2q0 22 14.5 34t34.5 12t34.5 -12t14.5 -34v-2z" />
    <glyph glyph-name="Ccaron" unicode="&#x10c;" horiz-adv-x="694" 
d="M362 44q50 0 87.5 14t64 38.5t41.5 56.5t21 68h63v-6q-6 -48 -27.5 -89.5t-56.5 -73t-83.5 -49.5t-108.5 -18q-62 0 -117 24t-95.5 67.5t-64 105t-23.5 136.5v24q0 72 23 131t63.5 102t95 66.5t116.5 23.5q58 0 106.5 -17t84 -46.5t57.5 -69t27 -85.5v-6h-61
q-5 33 -20 62.5t-41.5 52t-64 36t-87.5 13.5q-54 0 -97.5 -21.5t-74 -58.5t-47 -87t-16.5 -107q0 -60 16.5 -112.5t47 -91t74 -61t97.5 -22.5zM500 807l-142 -104l-147 104l21 35l126 -70l119 70z" />
    <glyph glyph-name="ccaron" unicode="&#x10d;" horiz-adv-x="556" 
d="M63 256q0 59 16.5 107t46.5 81.5t73 52t97 18.5q43 0 80 -11.5t65 -33t46 -53.5t22 -73v-6h-61q-10 60 -49 90.5t-102 30.5q-43 0 -75 -15.5t-53.5 -43t-32.5 -66t-11 -83.5t11 -83.5t32.5 -66.5t53.5 -44t74 -16q68 0 106 32t46 92h61v-6q-5 -41 -23 -73t-46 -54.5
t-64.5 -34.5t-78.5 -12q-54 0 -97 18t-73.5 52t-47 82t-16.5 108v11zM431 657l-142 -104l-147 104l21 35l126 -70l119 70z" />
    <glyph glyph-name="Dcaron" unicode="&#x10e;" horiz-adv-x="684" 
d="M621 313q0 -65 -22.5 -125t-63.5 -103q-85 -85 -243 -85h-193v650h193q79 0 139.5 -19.5t103.5 -62.5q41 -43 63.5 -103.5t22.5 -125.5v-26zM484 124q35 37 54 89t19 112t-20.5 116.5t-53.5 89.5t-78.5 47t-104.5 14h-139v-534h139q118 0 184 66zM448 807l-142 -104
l-147 104l21 35l126 -70l119 70z" />
    <glyph glyph-name="dcaron" unicode="&#x10f;" horiz-adv-x="625" 
d="M306 459q-48 0 -82.5 -16t-56 -44.5t-32 -67t-10.5 -83.5q0 -43 11 -80.5t33.5 -66t56.5 -45t80 -16.5q45 0 78 17t54 45.5t31 66t10 78.5q0 42 -9.5 80t-30.5 67.5t-53.5 47t-79.5 17.5zM63 259q0 56 15.5 103t46 81t76.5 53t106 19q52 0 96.5 -21.5t70.5 -58.5h2v265
h60v-700h-43l-20 65h-2q-10 -18 -28.5 -32.5t-41.5 -25.5t-49 -16.5t-53 -5.5q-43 0 -85.5 15t-76 46.5t-54 79.5t-20.5 114v19zM657 690h69v-11l-73 -184h-43z" />
    <glyph glyph-name="Dcroat" unicode="&#x110;" horiz-adv-x="684" 
d="M99 0v300h-77v57h77v293h193q79 0 139.5 -19.5t103.5 -62.5q41 -43 63.5 -103.5t22.5 -125.5v-26q0 -65 -22.5 -125t-63.5 -103q-85 -85 -243 -85h-193zM300 58q118 0 184 66q35 37 54 89t19 112t-20.5 116.5t-53.5 89.5t-78.5 47t-104.5 14h-139v-235h183v-57h-183v-242
h139z" />
    <glyph glyph-name="dcroat" unicode="&#x111;" horiz-adv-x="625" 
d="M306 459q-48 0 -82.5 -16t-56 -44.5t-32 -67t-10.5 -83.5q0 -43 11 -80.5t33.5 -66t56.5 -45t80 -16.5q45 0 78 17t54 45.5t31 66t10 78.5q0 42 -9.5 80t-30.5 67.5t-53.5 47t-79.5 17.5zM471 65q-10 -18 -28.5 -32.5t-41.5 -25.5t-49 -16.5t-53 -5.5q-43 0 -85.5 15
t-76 46.5t-54 79.5t-20.5 114v19q0 56 15.5 103t46 81t76.5 53t106 19q52 0 96.5 -21.5t70.5 -58.5h2v139h-138v53h138v73h60v-73h61v-53h-61v-574h-43l-20 65h-2z" />
    <glyph glyph-name="Emacron" unicode="&#x112;" horiz-adv-x="553" 
d="M476 650v-58h-315v-229h272v-58h-272v-247h315v-58h-377v650h377zM159 780h263v-53h-263v53z" />
    <glyph glyph-name="emacron" unicode="&#x113;" horiz-adv-x="579" 
d="M503 135q-17 -70 -72.5 -110t-133.5 -40q-54 0 -97 18t-73.5 52t-47 82t-16.5 108v11q0 59 16 107t46 81.5t73 52t97 18.5q61 0 103 -22.5t68.5 -59.5t38 -83.5t11.5 -94.5v-9.5t-1 -12.5h-390q2 -41 13.5 -76.5t33 -61t53 -40t71.5 -14.5q58 0 94.5 25t51.5 69h61z
M454 287q-4 30 -12.5 61t-26.5 55.5t-46.5 40.5t-72.5 16q-78 0 -120 -46.5t-50 -126.5h328zM155 633h263v-53h-263v53z" />
    <glyph glyph-name="Edotaccent" unicode="&#x116;" horiz-adv-x="553" 
d="M476 650v-58h-315v-229h272v-58h-272v-247h315v-58h-377v650h377zM339 758q0 -20 -14.5 -33.5t-34.5 -13.5t-34.5 13.5t-14.5 33.5v2q0 22 14.5 34t34.5 12t34.5 -12t14.5 -34v-2z" />
    <glyph glyph-name="edotaccent" unicode="&#x117;" horiz-adv-x="579" 
d="M503 135q-17 -70 -72.5 -110t-133.5 -40q-54 0 -97 18t-73.5 52t-47 82t-16.5 108v11q0 59 16 107t46 81.5t73 52t97 18.5q61 0 103 -22.5t68.5 -59.5t38 -83.5t11.5 -94.5v-9.5t-1 -12.5h-390q2 -41 13.5 -76.5t33 -61t53 -40t71.5 -14.5q58 0 94.5 25t51.5 69h61z
M454 287q-4 30 -12.5 61t-26.5 55.5t-46.5 40.5t-72.5 16q-78 0 -120 -46.5t-50 -126.5h328zM332 612q0 -20 -14.5 -33.5t-34.5 -13.5t-34.5 13.5t-14.5 33.5v2q0 22 14.5 34t34.5 12t34.5 -12t14.5 -34v-2z" />
    <glyph glyph-name="Eogonek" unicode="&#x118;" horiz-adv-x="553" 
d="M498 -168q-14 -7 -34 -9.5t-36 -2.5q-26 0 -43.5 7t-28.5 18.5t-15.5 25t-4.5 26.5q0 28 18 58.5t56 44.5h-311v650h377v-58h-315v-229h272v-58h-272v-247h315v-58q-48 -22 -64.5 -47.5t-16.5 -45.5q0 -18 12 -28.5t33 -10.5q11 0 23 2t26 7h9v-45z" />
    <glyph glyph-name="eogonek" unicode="&#x119;" horiz-adv-x="579" 
d="M333 -180q-26 0 -43.5 7t-28.5 18.5t-15.5 25t-4.5 26.5q0 22 11.5 46.5t34.5 41.5q-51 2 -92.5 21t-71 52.5t-45 81t-15.5 105.5v11q0 59 16 107t46 81.5t73 52t97 18.5q61 0 103 -22.5t68.5 -59.5t38 -83.5t11.5 -94.5v-9.5t-1 -12.5h-390q2 -41 13.5 -76.5t33 -61
t53 -40t71.5 -14.5q58 0 94.5 25t51.5 69h61q-13 -51 -46.5 -86.5t-82.5 -51.5q-43 -22 -58.5 -46t-15.5 -44q0 -18 12 -28.5t33 -10.5q11 0 23 2t26 7h9v-45q-14 -7 -34 -9.5t-36 -2.5zM454 287q-4 30 -12.5 61t-26.5 55.5t-46.5 40.5t-72.5 16q-78 0 -120 -46.5
t-50 -126.5h328z" />
    <glyph glyph-name="Ecaron" unicode="&#x11a;" horiz-adv-x="553" 
d="M476 650v-58h-315v-229h272v-58h-272v-247h315v-58h-377v650h377zM435 807l-142 -104l-147 104l21 35l126 -70l119 70z" />
    <glyph glyph-name="ecaron" unicode="&#x11b;" horiz-adv-x="579" 
d="M503 135q-17 -70 -72.5 -110t-133.5 -40q-54 0 -97 18t-73.5 52t-47 82t-16.5 108v11q0 59 16 107t46 81.5t73 52t97 18.5q61 0 103 -22.5t68.5 -59.5t38 -83.5t11.5 -94.5v-9.5t-1 -12.5h-390q2 -41 13.5 -76.5t33 -61t53 -40t71.5 -14.5q58 0 94.5 25t51.5 69h61z
M454 287q-4 30 -12.5 61t-26.5 55.5t-46.5 40.5t-72.5 16q-78 0 -120 -46.5t-50 -126.5h328zM433 657l-142 -104l-147 104l21 35l126 -70l119 70z" />
    <glyph glyph-name="Gcircumflex" unicode="&#x11c;" horiz-adv-x="730" 
d="M659 116q-18 -27 -45.5 -50.5t-62.5 -41.5t-76.5 -28.5t-86.5 -10.5q-76 0 -136.5 25.5t-102.5 70t-64 104.5t-22 128v23q0 72 22 132.5t62.5 104t97.5 68t127 24.5q59 0 105.5 -15.5t80 -44t54 -68.5t27.5 -88v-6h-66q-4 32 -17 61.5t-37 51.5t-60.5 35t-88.5 13
q-60 0 -105.5 -21.5t-76 -59t-45.5 -88t-15 -108.5t17.5 -109.5t50.5 -90t80 -60.5t107 -22q67 0 120.5 23.5t92.5 63.5v143h-214v59h277v-218zM217 738l142 104l147 -104l-21 -35l-126 70l-119 -70z" />
    <glyph glyph-name="gcircumflex" unicode="&#x11d;" horiz-adv-x="553" 
d="M283 461q-62 0 -98.5 -30t-36.5 -89t36.5 -88.5t99.5 -29.5t98 29.5t35 88.5t-36.5 89t-97.5 30zM520 -46q0 -37 -20 -65t-53 -46.5t-76 -28t-89 -9.5q-50 0 -92.5 9t-73.5 26t-48.5 43t-17.5 60v5q0 20 7 36t18 29t25 23t27 17q-14 13 -26 31t-12 44q0 28 12.5 49.5
t35.5 38.5q-23 21 -36.5 50.5t-13.5 69.5v11q0 42 15.5 73.5t42 52.5t62 32t76.5 11q51 0 91 -15l83 100h63v-11l-97 -117q26 -21 40.5 -52.5t14.5 -73.5v-12q0 -41 -15.5 -72t-42.5 -51.5t-63 -30.5t-76 -10q-55 0 -99 18q-16 -6 -26 -20.5t-10 -31.5q0 -19 12.5 -36.5
t37.5 -17.5h152q30 0 60.5 -6.5t55.5 -21t40.5 -37.5t15.5 -57v-7zM282 -140q38 0 70 6.5t55.5 18.5t36.5 29t13 37q0 36 -28 55.5t-83 19.5h-158q-29 -8 -51 -28t-22 -49q0 -89 167 -89zM143 588l123 104l127 -104l-18 -34l-109 69l-103 -69z" />
    <glyph glyph-name="Gbreve" unicode="&#x11e;" horiz-adv-x="730" 
d="M659 116q-18 -27 -45.5 -50.5t-62.5 -41.5t-76.5 -28.5t-86.5 -10.5q-76 0 -136.5 25.5t-102.5 70t-64 104.5t-22 128v23q0 72 22 132.5t62.5 104t97.5 68t127 24.5q59 0 105.5 -15.5t80 -44t54 -68.5t27.5 -88v-6h-66q-4 32 -17 61.5t-37 51.5t-60.5 35t-88.5 13
q-60 0 -105.5 -21.5t-76 -59t-45.5 -88t-15 -108.5t17.5 -109.5t50.5 -90t80 -60.5t107 -22q67 0 120.5 23.5t92.5 63.5v143h-214v59h277v-218zM498 800q-7 -49 -48.5 -76.5t-99.5 -27.5t-98.5 27.5t-47.5 76.5h60q8 -31 32.5 -45t54.5 -14t54.5 14t32.5 45h60z" />
    <glyph glyph-name="gbreve" unicode="&#x11f;" horiz-adv-x="553" 
d="M283 461q-62 0 -98.5 -30t-36.5 -89t36.5 -88.5t99.5 -29.5t98 29.5t35 88.5t-36.5 89t-97.5 30zM520 -46q0 -37 -20 -65t-53 -46.5t-76 -28t-89 -9.5q-50 0 -92.5 9t-73.5 26t-48.5 43t-17.5 60v5q0 20 7 36t18 29t25 23t27 17q-14 13 -26 31t-12 44q0 28 12.5 49.5
t35.5 38.5q-23 21 -36.5 50.5t-13.5 69.5v11q0 42 15.5 73.5t42 52.5t62 32t76.5 11q51 0 91 -15l83 100h63v-11l-97 -117q26 -21 40.5 -52.5t14.5 -73.5v-12q0 -41 -15.5 -72t-42.5 -51.5t-63 -30.5t-76 -10q-55 0 -99 18q-16 -6 -26 -20.5t-10 -31.5q0 -19 12.5 -36.5
t37.5 -17.5h152q30 0 60.5 -6.5t55.5 -21t40.5 -37.5t15.5 -57v-7zM282 -140q38 0 70 6.5t55.5 18.5t36.5 29t13 37q0 36 -28 55.5t-83 19.5h-158q-29 -8 -51 -28t-22 -49q0 -89 167 -89zM426 663q-7 -49 -48.5 -76.5t-99.5 -27.5t-98.5 27.5t-47.5 76.5h60q8 -31 32.5 -45
t54.5 -14t54.5 14t32.5 45h60z" />
    <glyph glyph-name="Gdotaccent" unicode="&#x120;" horiz-adv-x="730" 
d="M659 116q-18 -27 -45.5 -50.5t-62.5 -41.5t-76.5 -28.5t-86.5 -10.5q-76 0 -136.5 25.5t-102.5 70t-64 104.5t-22 128v23q0 72 22 132.5t62.5 104t97.5 68t127 24.5q59 0 105.5 -15.5t80 -44t54 -68.5t27.5 -88v-6h-66q-4 32 -17 61.5t-37 51.5t-60.5 35t-88.5 13
q-60 0 -105.5 -21.5t-76 -59t-45.5 -88t-15 -108.5t17.5 -109.5t50.5 -90t80 -60.5t107 -22q67 0 120.5 23.5t92.5 63.5v143h-214v59h277v-218zM400 758q0 -20 -14.5 -33.5t-34.5 -13.5t-34.5 13.5t-14.5 33.5v2q0 22 14.5 34t34.5 12t34.5 -12t14.5 -34v-2z" />
    <glyph glyph-name="gdotaccent" unicode="&#x121;" horiz-adv-x="553" 
d="M283 461q-62 0 -98.5 -30t-36.5 -89t36.5 -88.5t99.5 -29.5t98 29.5t35 88.5t-36.5 89t-97.5 30zM520 -46q0 -37 -20 -65t-53 -46.5t-76 -28t-89 -9.5q-50 0 -92.5 9t-73.5 26t-48.5 43t-17.5 60v5q0 20 7 36t18 29t25 23t27 17q-14 13 -26 31t-12 44q0 28 12.5 49.5
t35.5 38.5q-23 21 -36.5 50.5t-13.5 69.5v11q0 42 15.5 73.5t42 52.5t62 32t76.5 11q51 0 91 -15l83 100h63v-11l-97 -117q26 -21 40.5 -52.5t14.5 -73.5v-12q0 -41 -15.5 -72t-42.5 -51.5t-63 -30.5t-76 -10q-55 0 -99 18q-16 -6 -26 -20.5t-10 -31.5q0 -19 12.5 -36.5
t37.5 -17.5h152q30 0 60.5 -6.5t55.5 -21t40.5 -37.5t15.5 -57v-7zM282 -140q38 0 70 6.5t55.5 18.5t36.5 29t13 37q0 36 -28 55.5t-83 19.5h-158q-29 -8 -51 -28t-22 -49q0 -89 167 -89zM329 612q0 -20 -14.5 -33.5t-34.5 -13.5t-34.5 13.5t-14.5 33.5v2q0 22 14.5 34
t34.5 12t34.5 -12t14.5 -34v-2z" />
    <glyph glyph-name="uni0122" unicode="&#x122;" horiz-adv-x="730" 
d="M659 116q-18 -27 -45.5 -50.5t-62.5 -41.5t-76.5 -28.5t-86.5 -10.5q-76 0 -136.5 25.5t-102.5 70t-64 104.5t-22 128v23q0 72 22 132.5t62.5 104t97.5 68t127 24.5q59 0 105.5 -15.5t80 -44t54 -68.5t27.5 -88v-6h-66q-4 32 -17 61.5t-37 51.5t-60.5 35t-88.5 13
q-60 0 -105.5 -21.5t-76 -59t-45.5 -88t-15 -108.5t17.5 -109.5t50.5 -90t80 -60.5t107 -22q67 0 120.5 23.5t92.5 63.5v143h-214v59h277v-218zM336 -74h69v-11l-73 -144h-43z" />
    <glyph glyph-name="uni0123" unicode="&#x123;" horiz-adv-x="553" 
d="M283 461q-62 0 -98.5 -30t-36.5 -89t36.5 -88.5t99.5 -29.5t98 29.5t35 88.5t-36.5 89t-97.5 30zM520 -46q0 -37 -20 -65t-53 -46.5t-76 -28t-89 -9.5q-50 0 -92.5 9t-73.5 26t-48.5 43t-17.5 60v5q0 20 7 36t18 29t25 23t27 17q-14 13 -26 31t-12 44q0 28 12.5 49.5
t35.5 38.5q-23 21 -36.5 50.5t-13.5 69.5v11q0 42 15.5 73.5t42 52.5t62 32t76.5 11q51 0 91 -15l83 100h63v-11l-97 -117q26 -21 40.5 -52.5t14.5 -73.5v-12q0 -41 -15.5 -72t-42.5 -51.5t-63 -30.5t-76 -10q-55 0 -99 18q-16 -6 -26 -20.5t-10 -31.5q0 -19 12.5 -36.5
t37.5 -17.5h152q30 0 60.5 -6.5t55.5 -21t40.5 -37.5t15.5 -57v-7zM282 -140q38 0 70 6.5t55.5 18.5t36.5 29t13 37q0 36 -28 55.5t-83 19.5h-158q-29 -8 -51 -28t-22 -49q0 -89 167 -89zM311 715h69v-11l-73 -144h-43z" />
    <glyph glyph-name="Hcircumflex" unicode="&#x124;" horiz-adv-x="723" 
d="M99 0v650h62v-287h401v287h62v-650h-62v305h-401v-305h-62zM219 738l142 104l147 -104l-21 -35l-126 70l-119 -70z" />
    <glyph glyph-name="hcircumflex" unicode="&#x125;" horiz-adv-x="570" 
d="M89 0v700h60v-257h2q26 34 67 53t85 19q91 0 138 -47q26 -26 38 -64.5t12 -89.5v-314h-60v317q0 36 -7.5 64t-26.5 47q-31 31 -97 31q-36 0 -64.5 -11t-52.5 -35q-18 -18 -26 -45t-8 -71v-297h-60zM-30 786l142 104l147 -104l-21 -35l-126 70l-119 -70z" />
    <glyph glyph-name="Hbar" unicode="&#x126;" horiz-adv-x="723" 
d="M562 363v143h-401v-143h401zM161 0h-62v506h-49v56h49v88h62v-88h401v88h62v-88h48v-56h-48v-506h-62v305h-401v-305z" />
    <glyph glyph-name="hbar" unicode="&#x127;" horiz-adv-x="570" 
d="M149 0h-60v574h-61v53h61v73h60v-73h138v-53h-138v-131h2q26 34 67 53t85 19q91 0 138 -47q26 -26 38 -64.5t12 -89.5v-314h-60v317q0 36 -7.5 64t-26.5 47q-31 31 -97 31q-36 0 -64.5 -11t-52.5 -35q-18 -18 -26 -45t-8 -71v-297z" />
    <glyph glyph-name="Itilde" unicode="&#x128;" horiz-adv-x="260" 
d="M99 0v650h62v-650h-62zM-25 705q0 18 5.5 35.5t16.5 32t28 23.5t40 9t39 -7.5t30 -16t26.5 -16t27.5 -7.5q17 0 30.5 10t13.5 42h47q0 -18 -5.5 -35.5t-16.5 -32t-28 -23.5t-40 -9q-22 0 -38.5 7.5t-30.5 16t-26.5 16t-27.5 7.5q-17 0 -30.5 -10t-13.5 -42h-47z" />
    <glyph glyph-name="itilde" unicode="&#x129;" horiz-adv-x="232" 
d="M86 0v500h60v-500h-60zM-37 565q0 18 5.5 35.5t16.5 32t28 23.5t40 9t39 -7.5t30 -16t26.5 -16t27.5 -7.5q17 0 30.5 10t13.5 42h47q0 -18 -5.5 -35.5t-16.5 -32t-28 -23.5t-40 -9q-22 0 -38.5 7.5t-30.5 16t-26.5 16t-27.5 7.5q-17 0 -30.5 -10t-13.5 -42h-47z" />
    <glyph glyph-name="Imacron" unicode="&#x12a;" horiz-adv-x="260" 
d="M99 0v650h62v-650h-62zM-2 770h263v-53h-263v53z" />
    <glyph glyph-name="imacron" unicode="&#x12b;" horiz-adv-x="232" 
d="M86 0v500h60v-500h-60zM-16 633h263v-53h-263v53z" />
    <glyph glyph-name="Ibreve" unicode="&#x12c;" horiz-adv-x="260" 
d="M99 0v650h62v-650h-62zM274 800q-7 -49 -48.5 -76.5t-99.5 -27.5t-98.5 27.5t-47.5 76.5h60q8 -31 32.5 -45t54.5 -14t54.5 14t32.5 45h60z" />
    <glyph glyph-name="ibreve" unicode="&#x12d;" horiz-adv-x="232" 
d="M86 0v500h60v-500h-60zM263 662q-7 -49 -48.5 -76.5t-99.5 -27.5t-98.5 27.5t-47.5 76.5h60q8 -31 32.5 -45t54.5 -14t54.5 14t32.5 45h60z" />
    <glyph glyph-name="Iogonek" unicode="&#x12e;" horiz-adv-x="260" 
d="M183 -168q-14 -7 -34 -9.5t-36 -2.5q-26 0 -43.5 7t-28.5 18.5t-15.5 25t-4.5 26.5q0 14 5 30t14.5 30.5t24.5 26t34 17.5v649h62v-650q-48 -22 -64.5 -47.5t-16.5 -45.5q0 -18 12 -28.5t33 -10.5q11 0 23 2t26 7h9v-45z" />
    <glyph glyph-name="iogonek" unicode="&#x12f;" horiz-adv-x="232" 
d="M165 668q0 -20 -14.5 -33.5t-34.5 -13.5t-34.5 13.5t-14.5 33.5v2q0 22 14.5 34t34.5 12t34.5 -12t14.5 -34v-2zM168 -168q-14 -7 -34 -9.5t-36 -2.5q-26 0 -43.5 7t-28.5 18.5t-15.5 25t-4.5 26.5q0 14 5 30t15 30.5t25 26.5t35 18v498h60v-500q-48 -22 -64.5 -47.5
t-16.5 -45.5q0 -18 12 -28.5t33 -10.5q11 0 23 2t26 7h9v-45z" />
    <glyph glyph-name="Idotaccent" unicode="&#x130;" horiz-adv-x="260" 
d="M99 0v650h62v-650h-62zM176 759q0 -20 -14.5 -33.5t-34.5 -13.5t-34.5 13.5t-14.5 33.5v2q0 22 14.5 34t34.5 12t34.5 -12t14.5 -34v-2z" />
    <glyph glyph-name="dotlessi" unicode="&#x131;" horiz-adv-x="232" 
d="M86 0v500h60v-500h-60z" />
    <glyph glyph-name="Jcircumflex" unicode="&#x134;" horiz-adv-x="398" 
d="M64 62q14 -8 34.5 -14t43.5 -6t40.5 7t28.5 18q18 18 22 43.5t4 58.5v481h62v-481q0 -37 -6.5 -70.5t-23.5 -59t-47.5 -40.5t-78.5 -15q-19 0 -45 4t-49 14v60h15zM124 738l142 104l147 -104l-21 -35l-126 70l-119 -70z" />
    <glyph glyph-name="jcircumflex" unicode="&#x135;" horiz-adv-x="248" 
d="M4 -180v20q27 19 46 43.5t30 51.5t16 54.5t5 52.5v458h60v-455q0 -73 -25.5 -131.5t-72.5 -93.5h-59zM-13 587l142 104l147 -104l-21 -35l-126 70l-119 -70z" />
    <glyph glyph-name="uni0136" unicode="&#x136;" horiz-adv-x="582" 
d="M99 0v650h62v-301l306 301h70v-13l-305 -297l318 -327v-13h-70l-319 325v-325h-62zM282 -74h69v-11l-73 -144h-43z" />
    <glyph glyph-name="uni0137" unicode="&#x137;" horiz-adv-x="477" 
d="M149 253v-253h-60v700h60v-422l210 222h64v-11l-204 -218l250 -260v-11h-71zM259 -74h69v-11l-73 -144h-43z" />
    <glyph glyph-name="Lacute" unicode="&#x139;" horiz-adv-x="511" 
d="M99 650h62v-592h303v-58h-365v650zM6 733l196 137l36 -57l-210 -114z" />
    <glyph glyph-name="lacute" unicode="&#x13a;" horiz-adv-x="259" 
d="M144 97q0 -30 15 -41t45 -6h9v-53q-7 -2 -19 -2.5t-22 -0.5q-45 0 -66.5 24.5t-21.5 67.5v614h60v-603zM2 784l196 137l36 -57l-210 -114z" />
    <glyph glyph-name="uni013B" unicode="&#x13b;" horiz-adv-x="511" 
d="M99 650h62v-592h303v-58h-365v650zM261 -74h69v-11l-73 -144h-43z" />
    <glyph glyph-name="uni013C" unicode="&#x13c;" horiz-adv-x="259" 
d="M144 97q0 -30 15 -41t45 -6h9v-53q-7 -2 -19 -2.5t-22 -0.5q-45 0 -66.5 24.5t-21.5 67.5v614h60v-603zM113 -74h69v-11l-73 -144h-43z" />
    <glyph glyph-name="Lcaron" unicode="&#x13d;" horiz-adv-x="511" 
d="M99 650h62v-592h303v-58h-365v650zM329 650h69v-11l-73 -184h-43z" />
    <glyph glyph-name="lcaron" unicode="&#x13e;" horiz-adv-x="259" 
d="M144 97q0 -30 15 -41t45 -6h9v-53q-7 -2 -19 -2.5t-22 -0.5q-45 0 -66.5 24.5t-21.5 67.5v614h60v-603zM260 700h69v-11l-73 -184h-43z" />
    <glyph glyph-name="Ldot" unicode="&#x13f;" horiz-adv-x="511" 
d="M99 650h62v-592h303v-58h-365v650zM362 326q0 -20 -14.5 -33.5t-34.5 -13.5t-34.5 13.5t-14.5 33.5v2q0 22 14.5 34t34.5 12t34.5 -12t14.5 -34v-2z" />
    <glyph glyph-name="ldot" unicode="&#x140;" horiz-adv-x="309" 
d="M144 97q0 -30 15 -41t45 -6h9v-53q-7 -2 -19 -2.5t-22 -0.5q-45 0 -66.5 24.5t-21.5 67.5v614h60v-603zM321 327q0 -20 -14.5 -33.5t-34.5 -13.5t-34.5 13.5t-14.5 33.5v2q0 22 14.5 34t34.5 12t34.5 -12t14.5 -34v-2z" />
    <glyph glyph-name="Lslash" unicode="&#x141;" horiz-adv-x="511" 
d="M99 0v268l-66 -28l-25 55l91 38v317h62v-291l117 49l25 -55l-142 -59v-236h303v-58h-365z" />
    <glyph glyph-name="lslash" unicode="&#x142;" horiz-adv-x="259" 
d="M172 -6q-45 0 -66.5 24.5t-21.5 67.5v195l-65 -28l-24 53l89 38v356h60v-330l97 41l24 -53l-121 -52v-209q0 -30 15 -41t45 -6h9v-53q-7 -2 -19 -2.5t-22 -0.5z" />
    <glyph glyph-name="Nacute" unicode="&#x143;" horiz-adv-x="708" 
d="M99 0v650h70l376 -546h2v546h62v-650h-68l-378 551h-2v-551h-62zM222 732l196 137l36 -57l-210 -114z" />
    <glyph glyph-name="nacute" unicode="&#x144;" horiz-adv-x="570" 
d="M149 0h-60v500h43l17 -57h2q26 34 67 53t85 19q91 0 138 -47q26 -26 38 -64.5t12 -89.5v-314h-60v317q0 36 -7.5 64t-26.5 47q-31 31 -97 31q-36 0 -64.5 -11t-52.5 -35q-18 -18 -26 -45t-8 -71v-297zM173 583l196 137l36 -57l-210 -114z" />
    <glyph glyph-name="uni0145" unicode="&#x145;" horiz-adv-x="708" 
d="M99 0v650h70l376 -546h2v546h62v-650h-68l-378 551h-2v-551h-62zM341 -74h69v-11l-73 -144h-43z" />
    <glyph glyph-name="uni0146" unicode="&#x146;" horiz-adv-x="570" 
d="M149 0h-60v500h43l17 -57h2q26 34 67 53t85 19q91 0 138 -47q26 -26 38 -64.5t12 -89.5v-314h-60v317q0 36 -7.5 64t-26.5 47q-31 31 -97 31q-36 0 -64.5 -11t-52.5 -35q-18 -18 -26 -45t-8 -71v-297zM259 -74h69v-11l-73 -144h-43z" />
    <glyph glyph-name="Ncaron" unicode="&#x147;" horiz-adv-x="708" 
d="M99 0v650h70l376 -546h2v546h62v-650h-68l-378 551h-2v-551h-62zM505 807l-142 -104l-147 104l21 35l126 -70l119 70z" />
    <glyph glyph-name="ncaron" unicode="&#x148;" horiz-adv-x="570" 
d="M149 0h-60v500h43l17 -57h2q26 34 67 53t85 19q91 0 138 -47q26 -26 38 -64.5t12 -89.5v-314h-60v317q0 36 -7.5 64t-26.5 47q-31 31 -97 31q-36 0 -64.5 -11t-52.5 -35q-18 -18 -26 -45t-8 -71v-297zM439 657l-142 -104l-147 104l21 35l126 -70l119 70z" />
    <glyph glyph-name="napostrophe" unicode="&#x149;" horiz-adv-x="679" 
d="M258 0h-60v500h43l17 -57h2q26 34 67 53t85 19q91 0 138 -47q26 -26 38 -64.5t12 -89.5v-314h-60v317q0 36 -7.5 64t-26.5 47q-31 31 -97 31q-36 0 -64.5 -11t-52.5 -35q-18 -18 -26 -45t-8 -71v-297zM60 650h69v-11l-73 -205h-43z" />
    <glyph glyph-name="Eng" unicode="&#x14a;" horiz-adv-x="708" 
d="M99 0v650h70l376 -546h2v546h62v-660q0 -86 -40.5 -132.5t-121.5 -46.5q-13 0 -32.5 1.5t-37.5 6.5v59h5q12 -4 25 -6t30 -2q60 0 82 27t22 93v16l-378 545h-2v-551h-62z" />
    <glyph glyph-name="eng" unicode="&#x14b;" horiz-adv-x="570" 
d="M491 45q0 -69 -25.5 -129.5t-72.5 -95.5h-59v11q27 19 46 46.5t30 58t16 61t5 55.5v254q0 43 -8 72t-26 49q-17 17 -41.5 24.5t-55.5 7.5q-36 0 -65 -11t-54 -37q-15 -17 -23.5 -43.5t-8.5 -70.5v-297h-60v500h43l17 -57h2q26 34 67 53t85 19q47 0 82.5 -12t61.5 -41
q24 -25 34 -64.5t10 -92.5v-260z" />
    <glyph glyph-name="Omacron" unicode="&#x14c;" horiz-adv-x="742" 
d="M679 313q0 -73 -24 -133.5t-65.5 -103.5t-97.5 -67t-121 -24q-64 0 -120.5 24t-98 67t-65.5 103.5t-24 133.5v24q0 73 24 133.5t65.5 103.5t98 67t120.5 24q65 0 121 -24t97.5 -67t65.5 -103.5t24 -133.5v-24zM371 45q59 0 104.5 22.5t76.5 60.5t47 89t16 108t-16 108
t-47 89t-76.5 60.5t-104.5 22.5t-104.5 -22.5t-76.5 -60.5t-47 -89t-16 -108t16 -108t47 -89t76.5 -60.5t104.5 -22.5zM241 770h263v-53h-263v53z" />
    <glyph glyph-name="omacron" unicode="&#x14d;" horiz-adv-x="604" 
d="M63 258q0 62 18.5 110t50.5 80.5t75.5 49.5t93.5 17q51 0 95 -17t76 -49.5t50.5 -80.5t18.5 -110v-14q0 -61 -18.5 -109.5t-50.5 -81.5t-75.5 -50.5t-93.5 -17.5q-51 0 -95 17.5t-76 50.5t-50.5 81.5t-18.5 109.5v14zM302 41q44 0 77 16t55 44.5t33.5 67t11.5 82.5
q0 45 -11.5 83t-33.5 65.5t-55 43.5t-77 16q-43 0 -76.5 -16t-55.5 -43.5t-33.5 -65.5t-11.5 -83q0 -44 11.5 -82.5t33.5 -67t55.5 -44.5t76.5 -16zM172 633h263v-53h-263v53z" />
    <glyph glyph-name="Obreve" unicode="&#x14e;" horiz-adv-x="742" 
d="M518 801q-7 -49 -48.5 -76.5t-99.5 -27.5t-98.5 27.5t-47.5 76.5h60q8 -31 32.5 -45t54.5 -14t54.5 14t32.5 45h60zM679 313q0 -73 -24 -133.5t-65.5 -103.5t-97.5 -67t-121 -24q-64 0 -120.5 24t-98 67t-65.5 103.5t-24 133.5v24q0 73 24 133.5t65.5 103.5t98 67
t120.5 24q65 0 121 -24t97.5 -67t65.5 -103.5t24 -133.5v-24zM371 45q59 0 104.5 22.5t76.5 60.5t47 89t16 108t-16 108t-47 89t-76.5 60.5t-104.5 22.5t-104.5 -22.5t-76.5 -60.5t-47 -89t-16 -108t16 -108t47 -89t76.5 -60.5t104.5 -22.5z" />
    <glyph glyph-name="obreve" unicode="&#x14f;" horiz-adv-x="604" 
d="M449 663q-7 -49 -48.5 -76.5t-99.5 -27.5t-98.5 27.5t-47.5 76.5h60q8 -31 32.5 -45t54.5 -14t54.5 14t32.5 45h60zM63 258q0 62 18.5 110t50.5 80.5t75.5 49.5t93.5 17q51 0 95 -17t76 -49.5t50.5 -80.5t18.5 -110v-14q0 -61 -18.5 -109.5t-50.5 -81.5t-75.5 -50.5
t-93.5 -17.5q-51 0 -95 17.5t-76 50.5t-50.5 81.5t-18.5 109.5v14zM302 41q44 0 77 16t55 44.5t33.5 67t11.5 82.5q0 45 -11.5 83t-33.5 65.5t-55 43.5t-77 16q-43 0 -76.5 -16t-55.5 -43.5t-33.5 -65.5t-11.5 -83q0 -44 11.5 -82.5t33.5 -67t55.5 -44.5t76.5 -16z" />
    <glyph glyph-name="Ohungarumlaut" unicode="&#x150;" horiz-adv-x="742" 
d="M679 313q0 -73 -24 -133.5t-65.5 -103.5t-97.5 -67t-121 -24q-64 0 -120.5 24t-98 67t-65.5 103.5t-24 133.5v24q0 73 24 133.5t65.5 103.5t98 67t120.5 24q65 0 121 -24t97.5 -67t65.5 -103.5t24 -133.5v-24zM371 45q59 0 104.5 22.5t76.5 60.5t47 89t16 108t-16 108
t-47 89t-76.5 60.5t-104.5 22.5t-104.5 -22.5t-76.5 -60.5t-47 -89t-16 -108t16 -108t47 -89t76.5 -60.5t104.5 -22.5zM430 733l143 133l42 -57l-166 -110zM255 733l144 133l44 -59l-167 -108z" />
    <glyph glyph-name="ohungarumlaut" unicode="&#x151;" horiz-adv-x="604" 
d="M63 258q0 62 18.5 110t50.5 80.5t75.5 49.5t93.5 17q51 0 95 -17t76 -49.5t50.5 -80.5t18.5 -110v-14q0 -61 -18.5 -109.5t-50.5 -81.5t-75.5 -50.5t-93.5 -17.5q-51 0 -95 17.5t-76 50.5t-50.5 81.5t-18.5 109.5v14zM302 41q44 0 77 16t55 44.5t33.5 67t11.5 82.5
q0 45 -11.5 83t-33.5 65.5t-55 43.5t-77 16q-43 0 -76.5 -16t-55.5 -43.5t-33.5 -65.5t-11.5 -83q0 -44 11.5 -82.5t33.5 -67t55.5 -44.5t76.5 -16zM341 582l143 133l42 -57l-166 -110zM166 582l144 133l44 -59l-167 -108z" />
    <glyph glyph-name="OE" unicode="&#x152;" horiz-adv-x="1072" 
d="M371 45q59 0 104.5 22.5t76.5 60.5t47 89t16 108t-16 108t-47 89t-76.5 60.5t-104.5 22.5t-104.5 -22.5t-76.5 -60.5t-47 -89t-16 -108t16 -108t47 -89t76.5 -60.5t104.5 -22.5zM618 126q-38 -66 -102 -103.5t-145 -37.5q-64 0 -120.5 24t-98 67t-65.5 103.5t-24 133.5
v24q0 73 24 133.5t65.5 103.5t98 67t120.5 24q81 0 145 -36.5t102 -101.5v123h377v-58h-315v-229h272v-58h-272v-247h315v-58h-377v126z" />
    <glyph glyph-name="oe" unicode="&#x153;" horiz-adv-x="928" 
d="M660 -15q-66 0 -113 30t-73 86q-29 -57 -78.5 -86.5t-110.5 -29.5q-47 0 -87.5 17.5t-70.5 50.5t-47 81.5t-17 109.5v14q0 62 17 110t46.5 80.5t70 49.5t86.5 17q65 0 116 -31.5t79 -91.5q23 58 68 90.5t112 32.5q57 0 96.5 -22.5t64 -59.5t35.5 -83.5t11 -94.5v-9.5
t-1 -12.5h-359v-9q3 -39 14 -72.5t30 -58t46.5 -38.5t63.5 -14q53 0 86.5 25.5t45.5 68.5h61q-16 -70 -67.5 -110t-124.5 -40zM803 287q-1 31 -8.5 62t-24 55.5t-43 40t-66.5 15.5q-71 0 -108.5 -45t-47.5 -128h298zM284 41q39 0 68.5 16t50 44.5t30.5 67t10 82.5
q0 45 -10 83t-30.5 65.5t-50 43.5t-68.5 16t-68.5 -16t-50 -43.5t-30.5 -65.5t-10 -83q0 -44 10 -82.5t30.5 -67t50 -44.5t68.5 -16z" />
    <glyph glyph-name="Racute" unicode="&#x154;" horiz-adv-x="595" 
d="M336 319q33 0 56.5 11t38.5 30t22 43t7 50t-7.5 51t-22.5 44.5t-39 31.5t-57 12h-173v-273h175zM99 0v650h226q43 0 79.5 -11.5t63 -35t41.5 -58t15 -79.5v-18q0 -85 -48 -132.5t-125 -53.5l185 -249v-13h-68l-194 261h-113v-261h-62zM170 735l196 137l36 -57l-210 -114z
" />
    <glyph glyph-name="racute" unicode="&#x155;" horiz-adv-x="361" 
d="M149 0h-60v500h35l21 -79h1q20 42 64 62.5t92 20.5h10.5t12.5 -1v-60h-12q-57 0 -90 -18t-49.5 -47t-20.5 -66.5t-4 -75.5v-236zM94 583l196 137l36 -57l-210 -114z" />
    <glyph glyph-name="uni0156" unicode="&#x156;" horiz-adv-x="595" 
d="M336 319q33 0 56.5 11t38.5 30t22 43t7 50t-7.5 51t-22.5 44.5t-39 31.5t-57 12h-173v-273h175zM99 0v650h226q43 0 79.5 -11.5t63 -35t41.5 -58t15 -79.5v-18q0 -85 -48 -132.5t-125 -53.5l185 -249v-13h-68l-194 261h-113v-261h-62zM273 -74h69v-11l-73 -144h-43z" />
    <glyph glyph-name="uni0157" unicode="&#x157;" horiz-adv-x="361" 
d="M149 0h-60v500h35l21 -79h1q20 42 64 62.5t92 20.5h10.5t12.5 -1v-60h-12q-57 0 -90 -18t-49.5 -47t-20.5 -66.5t-4 -75.5v-236zM86 -74h69v-11l-73 -144h-43z" />
    <glyph glyph-name="Rcaron" unicode="&#x158;" horiz-adv-x="595" 
d="M336 319q33 0 56.5 11t38.5 30t22 43t7 50t-7.5 51t-22.5 44.5t-39 31.5t-57 12h-173v-273h175zM99 0v650h226q43 0 79.5 -11.5t63 -35t41.5 -58t15 -79.5v-18q0 -85 -48 -132.5t-125 -53.5l185 -249v-13h-68l-194 261h-113v-261h-62zM433 807l-142 -104l-147 104l21 35
l126 -70l119 70z" />
    <glyph glyph-name="rcaron" unicode="&#x159;" horiz-adv-x="361" 
d="M149 0h-60v500h35l21 -79h1q20 42 64 62.5t92 20.5h10.5t12.5 -1v-60h-12q-57 0 -90 -18t-49.5 -47t-20.5 -66.5t-4 -75.5v-236zM347 657l-142 -104l-147 104l21 35l126 -70l119 70z" />
    <glyph glyph-name="Sacute" unicode="&#x15a;" horiz-adv-x="564" 
d="M289 40q29 0 56 7t48 22.5t33.5 40t12.5 59.5q0 26 -6.5 45t-21.5 34q-27 27 -63.5 39t-76 21t-78.5 22t-69 41q-22 20 -34.5 48t-12.5 64v10q0 43 17 74.5t45 52.5t63.5 31.5t72.5 10.5q50 0 88 -14t63.5 -39t38 -57.5t12.5 -70.5v-6h-61q-1 61 -36.5 95.5t-103.5 34.5
q-36 0 -62 -9.5t-42 -25t-23.5 -35.5t-7.5 -41q0 -47 29 -76q23 -22 58.5 -33t76 -20.5t81 -24.5t71.5 -46q21 -21 33 -50t12 -68v-9q0 -49 -19.5 -83.5t-49.5 -56.5t-67 -32.5t-73 -10.5q-97 0 -157 53t-68 155v6h66q1 -31 12 -60t30.5 -50.5t48 -34.5t64.5 -13zM171 735
l196 137l36 -57l-210 -114z" />
    <glyph glyph-name="sacute" unicode="&#x15b;" horiz-adv-x="488" 
d="M247 -15q-86 0 -136 41.5t-54 122.5v6h63q3 -53 31 -85.5t95 -32.5q65 0 93 29.5t28 68.5q0 32 -19 51q-22 22 -54 31t-67 16.5t-68.5 18t-58.5 35.5q-17 17 -26.5 38.5t-9.5 48.5v6q0 32 14 57.5t37.5 42.5t54 26t63.5 9q38 0 70.5 -8t56.5 -25t38.5 -43t16.5 -61v-6
h-60q-1 27 -11 44.5t-25.5 28t-36 14.5t-43.5 4q-32 0 -53.5 -7t-34.5 -19t-18.5 -26.5t-5.5 -29.5q0 -19 5.5 -30.5t16.5 -22.5q18 -18 49 -26t66.5 -15.5t70.5 -19t60 -37.5q17 -17 26 -40.5t9 -49.5q0 -44 -17.5 -73.5t-44 -47.5t-59 -26t-62.5 -8zM131 583l196 137
l36 -57l-210 -114z" />
    <glyph glyph-name="Scircumflex" unicode="&#x15c;" horiz-adv-x="564" 
d="M289 40q29 0 56 7t48 22.5t33.5 40t12.5 59.5q0 26 -6.5 45t-21.5 34q-27 27 -63.5 39t-76 21t-78.5 22t-69 41q-22 20 -34.5 48t-12.5 64v10q0 43 17 74.5t45 52.5t63.5 31.5t72.5 10.5q50 0 88 -14t63.5 -39t38 -57.5t12.5 -70.5v-6h-61q-1 61 -36.5 95.5t-103.5 34.5
q-36 0 -62 -9.5t-42 -25t-23.5 -35.5t-7.5 -41q0 -47 29 -76q23 -22 58.5 -33t76 -20.5t81 -24.5t71.5 -46q21 -21 33 -50t12 -68v-9q0 -49 -19.5 -83.5t-49.5 -56.5t-67 -32.5t-73 -10.5q-97 0 -157 53t-68 155v6h66q1 -31 12 -60t30.5 -50.5t48 -34.5t64.5 -13zM137 738
l142 104l147 -104l-21 -35l-126 70l-119 -70z" />
    <glyph glyph-name="scircumflex" unicode="&#x15d;" horiz-adv-x="488" 
d="M247 -15q-86 0 -136 41.5t-54 122.5v6h63q3 -53 31 -85.5t95 -32.5q65 0 93 29.5t28 68.5q0 32 -19 51q-22 22 -54 31t-67 16.5t-68.5 18t-58.5 35.5q-17 17 -26.5 38.5t-9.5 48.5v6q0 32 14 57.5t37.5 42.5t54 26t63.5 9q38 0 70.5 -8t56.5 -25t38.5 -43t16.5 -61v-6
h-60q-1 27 -11 44.5t-25.5 28t-36 14.5t-43.5 4q-32 0 -53.5 -7t-34.5 -19t-18.5 -26.5t-5.5 -29.5q0 -19 5.5 -30.5t16.5 -22.5q18 -18 49 -26t66.5 -15.5t70.5 -19t60 -37.5q17 -17 26 -40.5t9 -49.5q0 -44 -17.5 -73.5t-44 -47.5t-59 -26t-62.5 -8zM105 588l142 104
l147 -104l-21 -35l-126 70l-119 -70z" />
    <glyph glyph-name="uni015E" unicode="&#x15e;" horiz-adv-x="564" 
d="M243 -180q-40 0 -71 11v46h10q17 -5 33.5 -7t25.5 -2q53 0 53 29q0 17 -13.5 24t-34.5 5l-3 6l20 53q-85 8 -136 60.5t-59 146.5v6h66q1 -31 12 -60t30.5 -50.5t48 -34.5t64.5 -13q29 0 56 7t48 22.5t33.5 40t12.5 59.5q0 26 -6.5 45t-21.5 34q-27 27 -63.5 39t-76 21
t-78.5 22t-69 41q-22 20 -34.5 48t-12.5 64v10q0 43 17 74.5t45 52.5t63.5 31.5t72.5 10.5q50 0 88 -14t63.5 -39t38 -57.5t12.5 -70.5v-6h-61q-1 61 -36.5 95.5t-103.5 34.5q-36 0 -62 -9.5t-42 -25t-23.5 -35.5t-7.5 -41q0 -47 29 -76q23 -22 58.5 -33t76 -20.5t81 -24.5
t71.5 -46q21 -21 33 -50t12 -68v-9q0 -45 -17 -78.5t-44 -55.5t-60.5 -33.5t-67.5 -14.5l-10 -29q17 -5 34 -19.5t17 -38.5q0 -21 -9.5 -35.5t-25 -24t-35.5 -14t-41 -4.5z" />
    <glyph glyph-name="uni015F" unicode="&#x15f;" horiz-adv-x="488" 
d="M205 -180q-40 0 -71 11v46h10q17 -5 33.5 -7t25.5 -2q53 0 53 29q0 17 -13.5 24t-34.5 5l-3 6l20 54q-76 5 -120 46.5t-48 116.5v6h63q3 -53 31 -85.5t95 -32.5q65 0 93 29.5t28 68.5q0 32 -19 51q-22 22 -54 31t-67 16.5t-68.5 18t-58.5 35.5q-17 17 -26.5 38.5
t-9.5 48.5v6q0 32 14 57.5t37.5 42.5t54 26t63.5 9q38 0 70.5 -8t56.5 -25t38.5 -43t16.5 -61v-6h-60q-1 27 -11 44.5t-25.5 28t-36 14.5t-43.5 4q-32 0 -53.5 -7t-34.5 -19t-18.5 -26.5t-5.5 -29.5q0 -19 5.5 -30.5t16.5 -22.5q18 -18 49 -26t66.5 -15.5t70.5 -19t60 -37.5
q17 -17 26 -40.5t9 -49.5q-1 -39 -15 -66.5t-35.5 -45.5t-49 -28t-55.5 -13l-10 -31q17 -5 34 -19.5t17 -38.5q0 -21 -9.5 -35.5t-25 -24t-35.5 -14t-41 -4.5z" />
    <glyph glyph-name="Scaron" unicode="&#x160;" horiz-adv-x="564" 
d="M289 40q29 0 56 7t48 22.5t33.5 40t12.5 59.5q0 26 -6.5 45t-21.5 34q-27 27 -63.5 39t-76 21t-78.5 22t-69 41q-22 20 -34.5 48t-12.5 64v10q0 43 17 74.5t45 52.5t63.5 31.5t72.5 10.5q50 0 88 -14t63.5 -39t38 -57.5t12.5 -70.5v-6h-61q-1 61 -36.5 95.5t-103.5 34.5
q-36 0 -62 -9.5t-42 -25t-23.5 -35.5t-7.5 -41q0 -47 29 -76q23 -22 58.5 -33t76 -20.5t81 -24.5t71.5 -46q21 -21 33 -50t12 -68v-9q0 -49 -19.5 -83.5t-49.5 -56.5t-67 -32.5t-73 -10.5q-97 0 -157 53t-68 155v6h66q1 -31 12 -60t30.5 -50.5t48 -34.5t64.5 -13zM427 807
l-142 -104l-147 104l21 35l126 -70l119 70z" />
    <glyph glyph-name="scaron" unicode="&#x161;" horiz-adv-x="488" 
d="M247 -15q-86 0 -136 41.5t-54 122.5v6h63q3 -53 31 -85.5t95 -32.5q65 0 93 29.5t28 68.5q0 32 -19 51q-22 22 -54 31t-67 16.5t-68.5 18t-58.5 35.5q-17 17 -26.5 38.5t-9.5 48.5v6q0 32 14 57.5t37.5 42.5t54 26t63.5 9q38 0 70.5 -8t56.5 -25t38.5 -43t16.5 -61v-6
h-60q-1 27 -11 44.5t-25.5 28t-36 14.5t-43.5 4q-32 0 -53.5 -7t-34.5 -19t-18.5 -26.5t-5.5 -29.5q0 -19 5.5 -30.5t16.5 -22.5q18 -18 49 -26t66.5 -15.5t70.5 -19t60 -37.5q17 -17 26 -40.5t9 -49.5q0 -44 -17.5 -73.5t-44 -47.5t-59 -26t-62.5 -8zM378 657l-142 -104
l-147 104l21 35l126 -70l119 70z" />
    <glyph glyph-name="uni0162" unicode="&#x162;" horiz-adv-x="556" 
d="M252 0v592h-203v58h458v-58h-193v-592h-6l-15 -44q17 -5 34 -19.5t17 -38.5q0 -21 -9.5 -35.5t-25 -24t-35.5 -14t-41 -4.5q-40 0 -71 11v46h10q17 -5 33.5 -7t25.5 -2q53 0 53 29q0 17 -13.5 24t-34.5 5l-3 6l25 68h-6z" />
    <glyph glyph-name="uni0163" unicode="&#x163;" horiz-adv-x="382" 
d="M195 -180q-40 0 -71 11v46h10q17 -5 33.5 -7t25.5 -2q53 0 53 29q0 17 -13.5 24t-34.5 5l-3 6l23 63q-56 11 -77.5 52t-21.5 95v304h-77v32q33 9 52.5 22t30 30t14 38t5.5 45h35v-113h144v-54h-144v-312q0 -49 25.5 -69t56.5 -20q18 0 37.5 6t33.5 17h15v-54
q-14 -9 -35.5 -15t-44.5 -8l-12 -35q17 -5 34 -19.5t17 -38.5q0 -21 -9.5 -35.5t-25 -24t-35.5 -14t-41 -4.5z" />
    <glyph glyph-name="Tcaron" unicode="&#x164;" horiz-adv-x="556" 
d="M49 650h458v-58h-193v-592h-62v592h-203v58zM438 807l-142 -104l-147 104l21 35l126 -70l119 70z" />
    <glyph glyph-name="tcaron" unicode="&#x165;" horiz-adv-x="382" 
d="M323 500v-54h-144v-312q0 -49 25.5 -69t56.5 -20q18 0 37.5 6t33.5 17h15v-54q-16 -10 -39.5 -16.5t-48.5 -6.5q-40 0 -67 12t-43.5 32t-23 48t-6.5 59v304h-77v32q33 9 52.5 22t30 30t14 38t5.5 45h35v-113h144zM407 691h69v-11l-73 -184h-43z" />
    <glyph glyph-name="Tbar" unicode="&#x166;" horiz-adv-x="556" 
d="M314 306v-306h-62v306h-141v56h141v230h-203v58h458v-58h-193v-230h158v-56h-158z" />
    <glyph glyph-name="tbar" unicode="&#x167;" horiz-adv-x="382" 
d="M347 14q-16 -10 -39.5 -16.5t-48.5 -6.5q-40 0 -67 12t-43.5 32t-23 48t-6.5 59v133h-77v53h77v118h-77v32q33 9 52.5 22t30 30t14 38t5.5 45h35v-113h144v-54h-144v-118h143v-53h-143v-141q0 -49 25.5 -69t56.5 -20q18 0 37.5 6t33.5 17h15v-54z" />
    <glyph glyph-name="Utilde" unicode="&#x168;" horiz-adv-x="664" 
d="M570 650v-424q0 -124 -64 -182.5t-174 -58.5t-174 58.5t-64 182.5v424h62v-429q0 -91 47 -134.5t129 -43.5t129 43.5t47 134.5v429h62zM179 705q0 18 5.5 35.5t16.5 32t28 23.5t40 9t39 -7.5t30 -16t26.5 -16t27.5 -7.5q17 0 30.5 10t13.5 42h47q0 -18 -5.5 -35.5
t-16.5 -32t-28 -23.5t-40 -9q-22 0 -38.5 7.5t-30.5 16t-26.5 16t-27.5 7.5q-17 0 -30.5 -10t-13.5 -42h-47z" />
    <glyph glyph-name="utilde" unicode="&#x169;" horiz-adv-x="546" 
d="M134 500v-312q0 -41 12.5 -69t32.5 -45.5t45 -25.5t49 -8t49 8t45 25.5t32.5 45.5t12.5 69v312h60v-312q0 -57 -18 -96t-46.5 -63t-64 -34.5t-70.5 -10.5t-70.5 10.5t-64 34.5t-46.5 63t-18 96v312h60zM121 565q0 18 5.5 35.5t16.5 32t28 23.5t40 9t39 -7.5t30 -16
t26.5 -16t27.5 -7.5q17 0 30.5 10t13.5 42h47q0 -18 -5.5 -35.5t-16.5 -32t-28 -23.5t-40 -9q-22 0 -38.5 7.5t-30.5 16t-26.5 16t-27.5 7.5q-17 0 -30.5 -10t-13.5 -42h-47z" />
    <glyph glyph-name="Umacron" unicode="&#x16a;" horiz-adv-x="664" 
d="M570 650v-424q0 -124 -64 -182.5t-174 -58.5t-174 58.5t-64 182.5v424h62v-429q0 -91 47 -134.5t129 -43.5t129 43.5t47 134.5v429h62zM196 770h263v-53h-263v53z" />
    <glyph glyph-name="umacron" unicode="&#x16b;" horiz-adv-x="546" 
d="M134 500v-312q0 -41 12.5 -69t32.5 -45.5t45 -25.5t49 -8t49 8t45 25.5t32.5 45.5t12.5 69v312h60v-312q0 -57 -18 -96t-46.5 -63t-64 -34.5t-70.5 -10.5t-70.5 10.5t-64 34.5t-46.5 63t-18 96v312h60zM142 633h263v-53h-263v53z" />
    <glyph glyph-name="Ubreve" unicode="&#x16c;" horiz-adv-x="664" 
d="M570 650v-424q0 -124 -64 -182.5t-174 -58.5t-174 58.5t-64 182.5v424h62v-429q0 -91 47 -134.5t129 -43.5t129 43.5t47 134.5v429h62zM475 801q-7 -49 -48.5 -76.5t-99.5 -27.5t-98.5 27.5t-47.5 76.5h60q8 -31 32.5 -45t54.5 -14t54.5 14t32.5 45h60z" />
    <glyph glyph-name="ubreve" unicode="&#x16d;" horiz-adv-x="546" 
d="M134 500v-312q0 -41 12.5 -69t32.5 -45.5t45 -25.5t49 -8t49 8t45 25.5t32.5 45.5t12.5 69v312h60v-312q0 -57 -18 -96t-46.5 -63t-64 -34.5t-70.5 -10.5t-70.5 10.5t-64 34.5t-46.5 63t-18 96v312h60zM420 663q-7 -49 -48.5 -76.5t-99.5 -27.5t-98.5 27.5t-47.5 76.5h60
q8 -31 32.5 -45t54.5 -14t54.5 14t32.5 45h60z" />
    <glyph glyph-name="Uring" unicode="&#x16e;" horiz-adv-x="664" 
d="M570 650v-424q0 -124 -64 -182.5t-174 -58.5t-174 58.5t-64 182.5v424h62v-429q0 -91 47 -134.5t129 -43.5t129 43.5t47 134.5v429h62zM239 790q0 38 26 63.5t64 25.5q39 0 65 -25.5t26 -63.5t-26 -64t-65 -26q-38 0 -64 26t-26 64zM373 791q0 20 -12 33.5t-32 13.5
q-19 0 -31.5 -13.5t-12.5 -33.5t12.5 -34.5t31.5 -14.5q20 0 32 14.5t12 34.5z" />
    <glyph glyph-name="uring" unicode="&#x16f;" horiz-adv-x="546" 
d="M134 500v-312q0 -41 12.5 -69t32.5 -45.5t45 -25.5t49 -8t49 8t45 25.5t32.5 45.5t12.5 69v312h60v-312q0 -57 -18 -96t-46.5 -63t-64 -34.5t-70.5 -10.5t-70.5 10.5t-64 34.5t-46.5 63t-18 96v312h60zM180 640q0 38 26 63.5t64 25.5q39 0 65 -25.5t26 -63.5t-26 -64
t-65 -26q-38 0 -64 26t-26 64zM314 641q0 20 -12 33.5t-32 13.5q-19 0 -31.5 -13.5t-12.5 -33.5t12.5 -34.5t31.5 -14.5q20 0 32 14.5t12 34.5z" />
    <glyph glyph-name="Uhungarumlaut" unicode="&#x170;" horiz-adv-x="664" 
d="M570 650v-424q0 -124 -64 -182.5t-174 -58.5t-174 58.5t-64 182.5v424h62v-429q0 -91 47 -134.5t129 -43.5t129 43.5t47 134.5v429h62zM375 733l143 133l42 -57l-166 -110zM200 733l144 133l44 -59l-167 -108z" />
    <glyph glyph-name="uhungarumlaut" unicode="&#x171;" horiz-adv-x="546" 
d="M134 500v-312q0 -41 12.5 -69t32.5 -45.5t45 -25.5t49 -8t49 8t45 25.5t32.5 45.5t12.5 69v312h60v-312q0 -57 -18 -96t-46.5 -63t-64 -34.5t-70.5 -10.5t-70.5 10.5t-64 34.5t-46.5 63t-18 96v312h60zM321 582l143 133l42 -57l-166 -110zM146 582l144 133l44 -59
l-167 -108z" />
    <glyph glyph-name="Uogonek" unicode="&#x172;" horiz-adv-x="664" 
d="M347 -180q-26 0 -43.5 7t-28.5 18.5t-15.5 25t-4.5 26.5q0 22 11.5 47t35.5 42q-97 8 -152.5 66t-55.5 174v424h62v-429q0 -91 47 -134.5t129 -43.5t129 43.5t47 134.5v429h62v-424q0 -113 -53 -171.5t-147 -67.5q-32 -20 -44 -41.5t-12 -38.5q0 -18 12 -28.5t33 -10.5
q11 0 23 2t26 7h9v-45q-14 -7 -34 -9.5t-36 -2.5z" />
    <glyph glyph-name="uogonek" unicode="&#x173;" horiz-adv-x="546" 
d="M294 -180q-26 0 -43.5 7t-28.5 18.5t-15.5 25t-4.5 26.5q0 22 11.5 46.5t34.5 41.5q-32 3 -63.5 16t-56 37t-39.5 61t-15 89v312h60v-312q0 -41 12.5 -69t32.5 -45.5t45 -25.5t49 -8t49 8t45 25.5t32.5 45.5t12.5 69v312h60v-312q0 -47 -12.5 -82t-33.5 -59t-48.5 -38
t-57.5 -20q-34 -20 -46.5 -42t-12.5 -40t12 -28.5t33 -10.5q11 0 23 2t26 7h9v-45q-14 -7 -34 -9.5t-36 -2.5z" />
    <glyph glyph-name="Wcircumflex" unicode="&#x174;" horiz-adv-x="884" 
d="M638 83l161 567h61v-13l-187 -637h-73l-157 560h-2l-157 -560h-73l-187 637v13h64l161 -567h2l155 567h75l155 -567h2zM302 738l142 104l147 -104l-21 -35l-126 70l-119 -70z" />
    <glyph glyph-name="wcircumflex" unicode="&#x175;" horiz-adv-x="801" 
d="M401 427h-2l-135 -427h-69l-156 489v11h62l130 -416h2l131 416h75l132 -416h2l130 416h59v-11l-156 -489h-69zM254 588l142 104l147 -104l-21 -35l-126 70l-119 -70z" />
    <glyph glyph-name="Ycircumflex" unicode="&#x176;" horiz-adv-x="619" 
d="M279 0v260l-247 377v13h63l216 -336l214 336h61v-13l-245 -377v-260h-62zM167 738l142 104l147 -104l-21 -35l-126 70l-119 -70z" />
    <glyph glyph-name="ycircumflex" unicode="&#x177;" horiz-adv-x="507" 
d="M202 -180h-61v11l79 183l-200 475v11h61l171 -418h2l173 418h60v-11zM109 588l142 104l147 -104l-21 -35l-126 70l-119 -70z" />
    <glyph glyph-name="Ydieresis" unicode="&#x178;" horiz-adv-x="619" 
d="M279 0v260l-247 377v13h63l216 -336l214 336h61v-13l-245 -377v-260h-62zM444 765q0 -20 -14.5 -33.5t-34.5 -13.5t-34.5 13.5t-14.5 33.5v2q0 22 14.5 34t34.5 12t34.5 -12t14.5 -34v-2zM280 765q0 -20 -14.5 -33.5t-34.5 -13.5t-34.5 13.5t-14.5 33.5v2q0 22 14.5 34
t34.5 12t34.5 -12t14.5 -34v-2z" />
    <glyph glyph-name="Zacute" unicode="&#x179;" horiz-adv-x="594" 
d="M93 650h438v-49l-376 -541v-2h367v-58h-446v50l374 540v2h-357v58zM185 735l196 137l36 -57l-210 -114z" />
    <glyph glyph-name="zacute" unicode="&#x17a;" horiz-adv-x="498" 
d="M75 500h348v-49l-272 -395v-2h277v-54h-356v45l276 399v2h-273v54zM141 583l196 137l36 -57l-210 -114z" />
    <glyph glyph-name="Zdotaccent" unicode="&#x17b;" horiz-adv-x="594" 
d="M93 650h438v-49l-376 -541v-2h367v-58h-446v50l374 540v2h-357v58zM352 759q0 -20 -14.5 -33.5t-34.5 -13.5t-34.5 13.5t-14.5 33.5v2q0 22 14.5 34t34.5 12t34.5 -12t14.5 -34v-2z" />
    <glyph glyph-name="zdotaccent" unicode="&#x17c;" horiz-adv-x="498" 
d="M75 500h348v-49l-272 -395v-2h277v-54h-356v45l276 399v2h-273v54zM301 611q0 -20 -14.5 -33.5t-34.5 -13.5t-34.5 13.5t-14.5 33.5v2q0 22 14.5 34t34.5 12t34.5 -12t14.5 -34v-2z" />
    <glyph glyph-name="Zcaron" unicode="&#x17d;" horiz-adv-x="594" 
d="M93 650h438v-49l-376 -541v-2h367v-58h-446v50l374 540v2h-357v58zM448 807l-142 -104l-147 104l21 35l126 -70l119 70z" />
    <glyph glyph-name="zcaron" unicode="&#x17e;" horiz-adv-x="498" 
d="M75 500h348v-49l-272 -395v-2h277v-54h-356v45l276 399v2h-273v54zM395 657l-142 -104l-147 104l21 35l126 -70l119 70z" />
    <glyph glyph-name="uni0192" unicode="&#x192;" horiz-adv-x="384" 
d="M30 401h75l10 96q8 85 47.5 126.5t107.5 41.5q20 0 44.5 -4.5t43.5 -14.5l-6 -51h-17q-14 8 -30.5 10.5t-30.5 2.5q-50 0 -69.5 -24.5t-24.5 -74.5l-11 -108h160l-6 -54h-162l-46 -437h-62l46 437h-74z" />
    <glyph glyph-name="Aringacute" unicode="&#x1fa;" horiz-adv-x="656" 
d="M372 716q0 20 -12 33.5t-32 13.5q-19 0 -31.5 -13.5t-12.5 -33.5t12.5 -34.5t31.5 -14.5q20 0 32 14.5t12 34.5zM183 236h287l-142 347h-2zM85 0h-55v13l258 621q-23 11 -36.5 32.5t-13.5 48.5q0 38 26 63.5t64 25.5q39 0 65 -25.5t26 -63.5q0 -27 -14 -48.5t-37 -32.5
l259 -621v-13h-59l-74 178h-335zM210 809l196 137l36 -57l-210 -114z" />
    <glyph glyph-name="aringacute" unicode="&#x1fb;" horiz-adv-x="525" 
d="M301 565q0 20 -12 33.5t-32 13.5q-19 0 -31.5 -13.5t-12.5 -33.5t12.5 -34.5t31.5 -14.5q20 0 32 14.5t12 34.5zM238 41q26 0 52.5 10.5t47.5 30t34.5 46.5t13.5 60v44q-63 21 -125 21q-27 0 -53.5 -6t-46.5 -19t-32.5 -33.5t-12.5 -49.5q0 -53 35 -78.5t87 -25.5z
M382 56q-25 -32 -68 -52t-86 -20q-39 0 -74 13.5t-58 37.5q-42 42 -42 101v6q0 40 15.5 70.5t43.5 51.5t66.5 31.5t83.5 10.5q32 0 63 -3.5t60 -14.5v33q0 64 -27 101.5t-98 37.5q-23 0 -45 -4.5t-39 -15t-27.5 -28.5t-11.5 -44h-61v6q7 57 37 88.5t74 43.5q-21 26 -21 58
q0 38 26 63.5t64 25.5q39 0 65 -25.5t26 -63.5q0 -32 -20 -57q54 -14 86 -57t32 -128v-322h-43q-5 14 -9.5 28t-9.5 28h-2zM138 662l196 137l36 -57l-210 -114z" />
    <glyph glyph-name="AEacute" unicode="&#x1fc;" horiz-adv-x="893" 
d="M441 597l-230 -361h232v361h-2zM818 650v-58h-315v-229h272v-58h-272v-247h315v-58h-375v178h-269l-112 -178h-67v14l407 636h416zM432 735l196 137l36 -57l-210 -114z" />
    <glyph glyph-name="aeacute" unicode="&#x1fd;" horiz-adv-x="862" 
d="M737 287q-1 31 -8.5 62t-24 55.5t-43 40t-66.5 15.5q-71 0 -108.5 -45t-47.5 -128h298zM594 -15q-64 0 -111 28.5t-73 81.5q-33 -60 -81 -85t-99 -25q-38 0 -75 13t-59 37q-42 42 -42 101v6q0 40 15.5 70.5t42.5 51.5t64.5 31.5t81.5 10.5q30 0 60 -3.5t58 -14.5v20
q0 37 -7 68t-26 50q-16 16 -37.5 25t-54.5 9q-21 0 -40.5 -4.5t-35.5 -15t-26 -28.5t-11 -44h-61v6q5 39 21 66t40 43.5t54 24t62 7.5q60 0 102.5 -26.5t59.5 -86.5q24 54 68 83.5t108 29.5q57 0 96.5 -22.5t64 -59.5t35.5 -83.5t11 -94.5v-9.5t-1 -12.5h-360
q2 -41 12.5 -76.5t30 -61t47.5 -40t65 -14.5q53 0 86.5 25.5t45.5 68.5h61q-16 -70 -67.5 -110t-124.5 -40zM233 41q25 0 50.5 9.5t46 27.5t33.5 45t13 63v46q-61 21 -120 21q-26 0 -51.5 -6t-45 -19t-31.5 -33.5t-12 -49.5q0 -53 33.5 -78.5t83.5 -25.5zM334 583l196 137
l36 -57l-210 -114z" />
    <glyph glyph-name="Oslashacute" unicode="&#x1fe;" horiz-adv-x="742" 
d="M242 732l196 137l36 -57l-210 -114zM127 325q0 -75 27 -138t80 -100l217 506q-37 12 -80 12q-59 0 -104.5 -22.5t-76.5 -60.5t-47 -89t-16 -108zM371 45q59 0 104.5 22.5t76.5 60.5t47 89t16 108q0 78 -29 143t-86 101l-219 -508q20 -8 42.5 -12t47.5 -4zM371 -15
q-60 0 -113 21l-31 -71h-52v15l34 80q-66 42 -106 114.5t-40 168.5v24q0 73 24 133.5t65.5 103.5t98 67t120.5 24q54 0 103 -17l29 67h53v-15l-32 -75q70 -40 112.5 -114t42.5 -174v-24q0 -73 -24 -133.5t-65.5 -103.5t-97.5 -67t-121 -24z" />
    <glyph glyph-name="oslashacute" unicode="&#x1ff;" horiz-adv-x="604" 
d="M185 583l196 137l36 -57l-210 -114zM125 251q0 -59 20 -106.5t58 -74.5l163 378q-30 11 -64 11q-43 0 -76.5 -16t-55.5 -43.5t-33.5 -65.5t-11.5 -83zM302 41q44 0 77 16t55 44.5t33.5 67t11.5 82.5q0 54 -16.5 97.5t-48.5 71.5l-160 -373q23 -6 48 -6zM303 -15
q-40 0 -71 10l-26 -60h-55v13l29 68q-54 30 -85.5 88t-31.5 140v14q0 62 18.5 110t50.5 80.5t75.5 49.5t93.5 17q47 0 87 -14l28 64h54v-14l-32 -75q48 -31 75.5 -86t27.5 -132v-14q0 -61 -18.5 -109.5t-50.5 -81.5t-75.5 -50.5t-93.5 -17.5z" />
    <glyph glyph-name="uni0218" unicode="&#x218;" horiz-adv-x="564" 
d="M289 40q29 0 56 7t48 22.5t33.5 40t12.5 59.5q0 26 -6.5 45t-21.5 34q-27 27 -63.5 39t-76 21t-78.5 22t-69 41q-22 20 -34.5 48t-12.5 64v10q0 43 17 74.5t45 52.5t63.5 31.5t72.5 10.5q50 0 88 -14t63.5 -39t38 -57.5t12.5 -70.5v-6h-61q-1 61 -36.5 95.5t-103.5 34.5
q-36 0 -62 -9.5t-42 -25t-23.5 -35.5t-7.5 -41q0 -47 29 -76q23 -22 58.5 -33t76 -20.5t81 -24.5t71.5 -46q21 -21 33 -50t12 -68v-9q0 -49 -19.5 -83.5t-49.5 -56.5t-67 -32.5t-73 -10.5q-97 0 -157 53t-68 155v6h66q1 -31 12 -60t30.5 -50.5t48 -34.5t64.5 -13zM256 -74
h69v-11l-73 -144h-43z" />
    <glyph glyph-name="uni0219" unicode="&#x219;" horiz-adv-x="488" 
d="M247 -15q-86 0 -136 41.5t-54 122.5v6h63q3 -53 31 -85.5t95 -32.5q65 0 93 29.5t28 68.5q0 32 -19 51q-22 22 -54 31t-67 16.5t-68.5 18t-58.5 35.5q-17 17 -26.5 38.5t-9.5 48.5v6q0 32 14 57.5t37.5 42.5t54 26t63.5 9q38 0 70.5 -8t56.5 -25t38.5 -43t16.5 -61v-6
h-60q-1 27 -11 44.5t-25.5 28t-36 14.5t-43.5 4q-32 0 -53.5 -7t-34.5 -19t-18.5 -26.5t-5.5 -29.5q0 -19 5.5 -30.5t16.5 -22.5q18 -18 49 -26t66.5 -15.5t70.5 -19t60 -37.5q17 -17 26 -40.5t9 -49.5q0 -44 -17.5 -73.5t-44 -47.5t-59 -26t-62.5 -8zM215 -74h69v-11
l-73 -144h-43z" />
    <glyph glyph-name="uni021A" unicode="&#x21a;" horiz-adv-x="556" 
d="M49 650h458v-58h-193v-592h-62v592h-203v58zM258 -74h69v-11l-73 -144h-43z" />
    <glyph glyph-name="uni021B" unicode="&#x21b;" horiz-adv-x="382" 
d="M323 500v-54h-144v-312q0 -49 25.5 -69t56.5 -20q18 0 37.5 6t33.5 17h15v-54q-16 -10 -39.5 -16.5t-48.5 -6.5q-40 0 -67 12t-43.5 32t-23 48t-6.5 59v304h-77v32q33 9 52.5 22t30 30t14 38t5.5 45h35v-113h144zM205 -74h69v-11l-73 -144h-43z" />
    <glyph glyph-name="uni0237" unicode="&#x237;" horiz-adv-x="248" 
d="M4 -180v20q27 19 46 43.5t30 51.5t16 54.5t5 52.5v458h60v-455q0 -73 -25.5 -131.5t-72.5 -93.5h-59z" />
    <glyph glyph-name="circumflex" unicode="&#x2c6;" 
d="M105 588l142 104l147 -104l-21 -35l-126 70l-119 -70z" />
    <glyph glyph-name="caron" unicode="&#x2c7;" 
d="M394 657l-142 -104l-147 104l21 35l126 -70l119 70z" />
    <glyph glyph-name="breve" unicode="&#x2d8;" 
d="M397 663q-7 -49 -48.5 -76.5t-99.5 -27.5t-98.5 27.5t-47.5 76.5h60q8 -31 32.5 -45t54.5 -14t54.5 14t32.5 45h60z" />
    <glyph glyph-name="dotaccent" unicode="&#x2d9;" 
d="M299 611q0 -20 -14.5 -33.5t-34.5 -13.5t-34.5 13.5t-14.5 33.5v2q0 22 14.5 34t34.5 12t34.5 -12t14.5 -34v-2z" />
    <glyph glyph-name="ring" unicode="&#x2da;" 
d="M160 657q0 38 26 63.5t64 25.5q39 0 65 -25.5t26 -63.5t-26 -64t-65 -26q-38 0 -64 26t-26 64zM294 658q0 20 -12 33.5t-32 13.5q-19 0 -31.5 -13.5t-12.5 -33.5t12.5 -34.5t31.5 -14.5q20 0 32 14.5t12 34.5z" />
    <glyph glyph-name="ogonek" unicode="&#x2db;" 
d="M307 0q-48 -22 -64.5 -47.5t-16.5 -45.5q0 -18 12 -28.5t33 -10.5q11 0 23 2t26 7h9v-45q-14 -7 -34 -9.5t-36 -2.5q-26 0 -43.5 7t-28.5 18.5t-15.5 25t-4.5 26.5q0 14 5 30t15 30.5t25 26.5t35 18z" />
    <glyph glyph-name="tilde" unicode="&#x2dc;" 
d="M98 565q0 18 5.5 35.5t16.5 32t28 23.5t40 9t39 -7.5t30 -16t26.5 -16t27.5 -7.5q17 0 30.5 10t13.5 42h47q0 -18 -5.5 -35.5t-16.5 -32t-28 -23.5t-40 -9q-22 0 -38.5 7.5t-30.5 16t-26.5 16t-27.5 7.5q-17 0 -30.5 -10t-13.5 -42h-47z" />
    <glyph glyph-name="hungarumlaut" unicode="&#x2dd;" 
d="M280 582l143 133l42 -57l-166 -110zM105 582l144 133l44 -59l-167 -108z" />
    <glyph glyph-name="uni0313" unicode="&#x313;" 
d="M292 558h-69v11l73 144h43z" />
    <glyph glyph-name="uni0323" unicode="&#x323;" 
d="M298 -122q0 -20 -14 -33t-34 -13t-34 13t-14 33v2q0 21 14 33t34 12t34 -12t14 -33v-2z" />
    <glyph glyph-name="uni0329" unicode="&#x329;" 
d="M218 -80h64v-151h-64v151z" />
    <glyph glyph-name="pi" unicode="&#x3c0;" horiz-adv-x="753" 
d="M656 -2q-17 -3 -36 -4.5t-39 -1.5q-67 0 -98.5 36t-31.5 130v345h-202v-391q-3 -29 -7.5 -56t-7.5 -56h-53q2 27 2 54t2 54v395h-118v57h597v-57h-149v-338q0 -39 4.5 -61.5t15 -34t27 -14.5t40.5 -3q10 0 24.5 1t29.5 4v-59z" />
    <glyph glyph-name="Wgrave" unicode="&#x1e80;" horiz-adv-x="884" 
d="M638 83l161 567h61v-13l-187 -637h-73l-157 560h-2l-157 -560h-73l-187 637v13h64l161 -567h2l155 567h75l155 -567h2zM552 701l-210 114l36 57l196 -137z" />
    <glyph glyph-name="wgrave" unicode="&#x1e81;" horiz-adv-x="801" 
d="M401 427h-2l-135 -427h-69l-156 489v11h62l130 -416h2l131 416h75l132 -416h2l130 416h59v-11l-156 -489h-69zM490 549l-210 114l36 57l196 -137z" />
    <glyph glyph-name="Wacute" unicode="&#x1e82;" horiz-adv-x="884" 
d="M638 83l161 567h61v-13l-187 -637h-73l-157 560h-2l-157 -560h-73l-187 637v13h64l161 -567h2l155 567h75l155 -567h2zM338 735l196 137l36 -57l-210 -114z" />
    <glyph glyph-name="wacute" unicode="&#x1e83;" horiz-adv-x="801" 
d="M401 427h-2l-135 -427h-69l-156 489v11h62l130 -416h2l131 416h75l132 -416h2l130 416h59v-11l-156 -489h-69zM286 583l196 137l36 -57l-210 -114z" />
    <glyph glyph-name="Wdieresis" unicode="&#x1e84;" horiz-adv-x="884" 
d="M638 83l161 567h61v-13l-187 -637h-73l-157 560h-2l-157 -560h-73l-187 637v13h64l161 -567h2l155 567h75l155 -567h2zM577 761q0 -20 -14.5 -33.5t-34.5 -13.5t-34.5 13.5t-14.5 33.5v2q0 22 14.5 34t34.5 12t34.5 -12t14.5 -34v-2zM413 761q0 -20 -14.5 -33.5
t-34.5 -13.5t-34.5 13.5t-14.5 33.5v2q0 22 14.5 34t34.5 12t34.5 -12t14.5 -34v-2z" />
    <glyph glyph-name="wdieresis" unicode="&#x1e85;" horiz-adv-x="801" 
d="M401 427h-2l-135 -427h-69l-156 489v11h62l130 -416h2l131 416h75l132 -416h2l130 416h59v-11l-156 -489h-69zM533 615q0 -20 -14.5 -33.5t-34.5 -13.5t-34.5 13.5t-14.5 33.5v2q0 22 14.5 34t34.5 12t34.5 -12t14.5 -34v-2zM369 615q0 -20 -14.5 -33.5t-34.5 -13.5
t-34.5 13.5t-14.5 33.5v2q0 22 14.5 34t34.5 12t34.5 -12t14.5 -34v-2z" />
    <glyph glyph-name="Ygrave" unicode="&#x1ef2;" horiz-adv-x="619" 
d="M279 0v260l-247 377v13h63l216 -336l214 336h61v-13l-245 -377v-260h-62zM402 701l-210 114l36 57l196 -137z" />
    <glyph glyph-name="ygrave" unicode="&#x1ef3;" horiz-adv-x="507" 
d="M202 -180h-61v11l79 183l-200 475v11h61l171 -418h2l173 418h60v-11zM344 549l-210 114l36 57l196 -137z" />
    <glyph glyph-name="uni2009" unicode="&#x2009;" horiz-adv-x="25" 
 />
    <glyph glyph-name="endash" unicode="&#x2013;" horiz-adv-x="519" 
d="M437 323v-58h-355v58h355z" />
    <glyph glyph-name="emdash" unicode="&#x2014;" horiz-adv-x="689" 
d="M607 323v-58h-525v58h525z" />
    <glyph glyph-name="uni2016" unicode="&#x2016;" horiz-adv-x="687" 
d="M285 773v-899h-56v899h56zM449 773v-899h-56v899h56z" />
    <glyph glyph-name="quoteleft" unicode="&#x2018;" horiz-adv-x="292" 
d="M161 434h-69v11l73 205h43z" />
    <glyph glyph-name="quoteright" unicode="&#x2019;" horiz-adv-x="292" 
d="M131 650h69v-11l-73 -205h-43z" />
    <glyph glyph-name="quotesinglbase" unicode="&#x201a;" horiz-adv-x="252" 
d="M131 89h69v-11l-73 -205h-43z" />
    <glyph glyph-name="uni201B" unicode="&#x201b;" horiz-adv-x="243" 
d="M156 434h-43l-73 205v11h69z" />
    <glyph glyph-name="quotedblleft" unicode="&#x201c;" horiz-adv-x="428" 
d="M297 434h-69v11l73 205h43zM161 434h-69v11l73 205h43z" />
    <glyph glyph-name="quotedblright" unicode="&#x201d;" horiz-adv-x="428" 
d="M267 650h69v-11l-73 -205h-43zM131 650h69v-11l-73 -205h-43z" />
    <glyph glyph-name="quotedblbase" unicode="&#x201e;" horiz-adv-x="379" 
d="M236 89h69v-11l-73 -205h-43zM100 89h69v-11l-73 -205h-43z" />
    <glyph glyph-name="uni201F" unicode="&#x201f;" horiz-adv-x="377" 
d="M190 434h-43l-73 205v11h69zM324 434h-43l-73 205v11h69z" />
    <glyph glyph-name="dagger" unicode="&#x2020;" horiz-adv-x="446" 
d="M248 700v-261h124v-47h-124v-470h-52v470h-123v47h123v261h52z" />
    <glyph glyph-name="daggerdbl" unicode="&#x2021;" horiz-adv-x="446" 
d="M73 207v46h123v139h-123v47h123v261h52v-261h124v-47h-124v-139h124v-46h-124v-285h-52v285h-123z" />
    <glyph glyph-name="uni2022" unicode="&#x2022;" horiz-adv-x="982" 
d="M491 477q50 0 94.5 -19.5t77.5 -52.5t52 -77t19 -94t-19 -94.5t-52 -77.5t-77.5 -52t-94.5 -19t-94.5 19t-77.5 52t-52 77.5t-19 94.5t19 94t52 77t77.5 52.5t94.5 19.5z" />
    <glyph glyph-name="ellipsis" unicode="&#x2026;" horiz-adv-x="889" 
d="M197 41q0 -20 -14.5 -33.5t-34.5 -13.5t-34.5 13.5t-14.5 33.5v2q0 22 14.5 34t34.5 12t34.5 -12t14.5 -34v-2zM493 41q0 -20 -14.5 -33.5t-34.5 -13.5t-34.5 13.5t-14.5 33.5v2q0 22 14.5 34t34.5 12t34.5 -12t14.5 -34v-2zM790 41q0 -20 -14.5 -33.5t-34.5 -13.5
t-34.5 13.5t-14.5 33.5v2q0 22 14.5 34t34.5 12t34.5 -12t14.5 -34v-2z" />
    <glyph glyph-name="perthousand" unicode="&#x2030;" horiz-adv-x="896" 
d="M86 525q0 30 10.5 54t27.5 40.5t40 25.5t47 9t46.5 -9t39.5 -25.5t27.5 -40.5t10.5 -54v-8q0 -30 -10.5 -54t-27.5 -40.5t-40 -25.5t-47 -9t-46.5 9t-39.5 25.5t-27.5 40.5t-10.5 54v8zM126 0v13l358 637h55v-13l-360 -637h-53zM140 520q0 -35 18 -59t53 -24q34 0 52 24
t18 59t-18 60t-52 25q-35 0 -53 -25t-18 -60zM613 131q0 30 10.5 54t27.5 40.5t40 25.5t47 9t46.5 -9t39.5 -25.5t27.5 -40.5t10.5 -54v-8q0 -30 -10.5 -54t-27.5 -40.5t-40 -25.5t-47 -9t-46.5 9t-39.5 25.5t-27.5 40.5t-10.5 54v8zM332 131q0 30 10.5 54t27.5 40.5
t40 25.5t47 9t46.5 -9t39.5 -25.5t27.5 -40.5t10.5 -54v-8q0 -30 -10.5 -54t-27.5 -40.5t-40 -25.5t-47 -9t-46.5 9t-39.5 25.5t-27.5 40.5t-10.5 54v8zM667 126q0 -35 18 -59t53 -24q34 0 52 24t18 59t-18 60t-52 25q-35 0 -53 -25t-18 -60zM386 126q0 -35 18 -59t53 -24
q34 0 52 24t18 59t-18 60t-52 25q-35 0 -53 -25t-18 -60z" />
    <glyph glyph-name="uni2034" unicode="&#x2034;" horiz-adv-x="486" 
d="M84 637v13h64v-13l-10 -193h-44zM338 637v13h64v-13l-10 -193h-44zM211 637v13h64v-13l-10 -193h-44z" />
    <glyph glyph-name="guilsinglleft" unicode="&#x2039;" horiz-adv-x="337" 
d="M50 257l157 188h65v-14l-149 -179l149 -178v-14h-65l-157 188v9z" />
    <glyph glyph-name="guilsinglright" unicode="&#x203a;" horiz-adv-x="337" 
d="M287 248l-157 -188h-65v14l149 178l-149 179v14h65l157 -188v-9z" />
    <glyph glyph-name="fraction" unicode="&#x2044;" horiz-adv-x="203" 
d="M-135 0v14l418 636h55v-13q-106 -161 -210.5 -318.5t-210.5 -318.5h-52z" />
    <glyph glyph-name="uni2070" unicode="&#x2070;" horiz-adv-x="336" 
d="M36 477q0 79 33.5 129t98.5 50t98.5 -50t33.5 -129v-9q0 -39 -8.5 -71.5t-25 -56.5t-41.5 -37.5t-57 -13.5q-33 0 -57.5 13.5t-41 37.5t-25 56.5t-8.5 71.5v9zM169 608q-24 0 -39 -10t-24 -28t-12.5 -42.5t-3.5 -53.5t3.5 -53.5t12 -42.5t23.5 -28.5t39 -10.5t39 10
t23.5 28t12 43t3.5 54t-3.5 53.5t-12 42.5t-23.5 28t-38 10z" />
    <glyph glyph-name="uni2074" unicode="&#x2074;" horiz-adv-x="334" 
d="M18 427l176 223h59v-216h47v-50h-47v-87h-54v87h-174zM199 434v148h-3q-20 -32 -50.5 -73t-58.5 -75h112z" />
    <glyph glyph-name="uni2075" unicode="&#x2075;" horiz-adv-x="289" 
d="M41 467l20 183h183v-50h-133l-9 -84q26 3 53.5 -1.5t50.5 -17t38 -34t15 -53.5v-6q0 -24 -10 -44.5t-27.5 -36t-40.5 -24t-49 -8.5q-35 0 -61.5 8.5t-46.5 22.5v55h8q19 -12 41 -22.5t56 -10.5q39 0 57 20t18 41q0 18 -8.5 30.5t-21.5 19.5t-28 10t-29 3
q-17 0 -35.5 -2.5t-32.5 -5.5z" />
    <glyph glyph-name="uni2076" unicode="&#x2076;" horiz-adv-x="295" 
d="M26 416q0 29 12.5 60.5t32.5 62t45.5 59.5t51.5 52h67v-8q-15 -10 -32.5 -25t-34.5 -32t-31.5 -34.5t-23.5 -33.5l1 -2q5 5 18.5 8.5t27.5 3.5q23 0 44 -8t37 -23t26 -36.5t10 -48.5v-4q0 -26 -10.5 -47.5t-28 -36.5t-40.5 -23.5t-49 -8.5q-58 0 -90.5 34.5t-32.5 85.5v5
zM152 478q-36 0 -53.5 -21.5t-17.5 -47.5q0 -27 17.5 -48.5t54.5 -21.5q35 0 53 22.5t18 48.5q0 27 -18.5 47.5t-53.5 20.5z" />
    <glyph glyph-name="uni2077" unicode="&#x2077;" horiz-adv-x="269" 
d="M22 650h245v-43q-39 -35 -66.5 -70.5t-47 -73t-32.5 -78.5t-23 -88h-52v8q8 37 21 77t31.5 79t42.5 75t53 64v1q-18 -1 -37 -1h-37h-98v50z" />
    <glyph glyph-name="uni2078" unicode="&#x2078;" horiz-adv-x="299" 
d="M225 477q21 -10 34.5 -32t13.5 -49v-3q0 -51 -34.5 -77.5t-89.5 -26.5q-54 0 -88.5 26.5t-34.5 77.5v3q0 27 14 49t35 32v3q-13 7 -25 27.5t-12 43.5v4q0 48 32 74.5t79 26.5q48 0 80.5 -26.5t32.5 -74.5v-4q0 -23 -12.5 -43.5t-24.5 -27.5v-3zM210 554q0 26 -18.5 41
t-41.5 15q-25 0 -42.5 -15t-17.5 -41q0 -20 16 -36.5t44 -16.5t44 16.5t16 36.5zM76 391q0 -22 19.5 -38t54.5 -16t54.5 16t19.5 38q0 29 -22 43.5t-52 14.5t-52 -14.5t-22 -43.5z" />
    <glyph glyph-name="uni2079" unicode="&#x2079;" horiz-adv-x="294" 
d="M269 531q0 -29 -12.5 -60.5t-32.5 -62t-45.5 -59.5t-51.5 -52h-67v8q15 11 32.5 25.5t34.5 31.5t31.5 34.5t23.5 33.5l-1 2q-5 -5 -18.5 -8.5t-27.5 -3.5q-22 0 -43.5 8t-37.5 23t-26 36.5t-10 48.5v4q0 26 10.5 47.5t28 36.5t41 23.5t48.5 8.5q58 0 90.5 -34.5
t32.5 -85.5v-5zM143 469q36 0 53.5 21.5t17.5 47.5q0 27 -17.5 48.5t-54.5 21.5q-35 0 -53 -22.5t-18 -48.5q0 -27 18.5 -47.5t53.5 -20.5z" />
    <glyph glyph-name="uni207A" unicode="&#x207a;" horiz-adv-x="339" 
d="M43 494h102v106h47v-106h102v-42h-102v-105h-47v105h-102v42z" />
    <glyph glyph-name="uni207B" unicode="&#x207b;" horiz-adv-x="337" 
d="M43 494h251v-42h-251v42z" />
    <glyph glyph-name="uni207C" unicode="&#x207c;" horiz-adv-x="337" 
d="M43 541h251v-42h-251v42zM43 449h251v-42h-251v42z" />
    <glyph glyph-name="uni207D" unicode="&#x207d;" horiz-adv-x="180" 
d="M145 696v-6q-25 -57 -36 -111t-11 -105t11 -105t36 -111v-5h-39q-32 58 -45 112.5t-13 108.5t13 108.5t45 113.5h39z" />
    <glyph glyph-name="uni207E" unicode="&#x207e;" horiz-adv-x="180" 
d="M35 253v6q25 57 36 111t11 105t-11 105t-36 111v5h39q32 -58 45 -112.5t13 -108.5t-13 -108.5t-45 -113.5h-39z" />
    <glyph glyph-name="uni2080" unicode="&#x2080;" horiz-adv-x="336" 
d="M36 181q0 79 33.5 129t98.5 50t98.5 -50t33.5 -129v-9q0 -39 -8.5 -71.5t-25 -56.5t-41.5 -37.5t-57 -13.5q-33 0 -57.5 13.5t-41 37.5t-25 56.5t-8.5 71.5v9zM169 312q-24 0 -39 -10t-24 -28t-12.5 -42.5t-3.5 -53.5t3.5 -53.5t12 -42.5t23.5 -28.5t39 -10.5t39 10
t23.5 28t12 43t3.5 54t-3.5 53.5t-12 42.5t-23.5 28t-38 10z" />
    <glyph glyph-name="uni2081" unicode="&#x2081;" horiz-adv-x="198" 
d="M101 0v260h-77v34q38 5 59.5 16t33.5 43h35v-353h-51z" />
    <glyph glyph-name="uni2082" unicode="&#x2082;" horiz-adv-x="297" 
d="M32 0v33q19 17 49 42.5t58 55.5t48 62t20 61q0 26 -16.5 42t-43.5 16q-33 0 -48.5 -18t-15.5 -41q0 -10 1 -16t1 -9v-6h-50q-4 13 -4 34q0 24 10 43.5t26 32.5t37 20t43 7q51 0 83.5 -27.5t32.5 -77.5v-7q0 -25 -13.5 -51.5t-34.5 -52t-45 -49t-45 -43.5v-3h143v-48h-236
z" />
    <glyph glyph-name="uni2083" unicode="&#x2083;" horiz-adv-x="305" 
d="M144 -6q-51 0 -83.5 27t-34.5 75v4h52q8 -58 69 -58q32 0 50.5 17.5t18.5 49.5q0 24 -17.5 45t-55.5 21q-18 0 -33 -4l-8 7l-10 24l85 103v1q-14 -1 -26.5 -1h-19.5h-90v48h211v-34l-79 -97q42 -8 69.5 -37.5t27.5 -68.5v-4q0 -29 -10.5 -51t-28 -37t-40 -22.5
t-47.5 -7.5z" />
    <glyph glyph-name="uni2084" unicode="&#x2084;" horiz-adv-x="334" 
d="M18 128l176 223h59v-216h47v-50h-47v-87h-54v87h-174zM199 135v148h-3q-20 -32 -50.5 -73t-58.5 -75h112z" />
    <glyph glyph-name="uni2085" unicode="&#x2085;" horiz-adv-x="289" 
d="M41 170l20 183h183v-50h-133l-9 -84q26 3 53.5 -1.5t50.5 -17t38 -34t15 -53.5v-6q0 -24 -10 -44.5t-27.5 -36t-40.5 -24t-49 -8.5q-35 0 -61.5 8.5t-46.5 22.5v55h8q19 -12 41 -22.5t56 -10.5q39 0 57 20t18 41q0 18 -8.5 30.5t-21.5 19.5t-28 10t-29 3
q-17 0 -35.5 -2.5t-32.5 -5.5z" />
    <glyph glyph-name="uni2086" unicode="&#x2086;" horiz-adv-x="295" 
d="M26 119q0 29 12.5 60.5t32.5 62t45.5 59.5t51.5 52h67v-8q-15 -10 -32.5 -25t-34.5 -32t-31.5 -34.5t-23.5 -33.5l1 -2q5 5 18.5 8.5t27.5 3.5q23 0 44 -8t37 -23t26 -36.5t10 -48.5v-4q0 -26 -10.5 -47.5t-28 -36.5t-40.5 -23.5t-49 -8.5q-58 0 -90.5 34.5t-32.5 85.5v5
zM152 181q-36 0 -53.5 -21.5t-17.5 -47.5q0 -27 17.5 -48.5t54.5 -21.5q35 0 53 22.5t18 48.5q0 27 -18.5 47.5t-53.5 20.5z" />
    <glyph glyph-name="uni2087" unicode="&#x2087;" horiz-adv-x="269" 
d="M22 353h245v-43q-39 -35 -66.5 -70.5t-47 -73t-32.5 -78.5t-23 -88h-52v8q8 37 21 77t31.5 79t42.5 75t53 64v1q-18 -1 -37 -1h-37h-98v50z" />
    <glyph glyph-name="uni2088" unicode="&#x2088;" horiz-adv-x="299" 
d="M225 181q21 -10 34.5 -32t13.5 -49v-3q0 -51 -34.5 -77.5t-89.5 -26.5q-54 0 -88.5 26.5t-34.5 77.5v3q0 27 14 49t35 32v3q-13 7 -25 27.5t-12 43.5v4q0 48 32 74.5t79 26.5q48 0 80.5 -26.5t32.5 -74.5v-4q0 -23 -12.5 -43.5t-24.5 -27.5v-3zM210 258q0 26 -18.5 41
t-41.5 15q-25 0 -42.5 -15t-17.5 -41q0 -20 16 -36.5t44 -16.5t44 16.5t16 36.5zM76 95q0 -22 19.5 -38t54.5 -16t54.5 16t19.5 38q0 29 -22 43.5t-52 14.5t-52 -14.5t-22 -43.5z" />
    <glyph glyph-name="uni2089" unicode="&#x2089;" horiz-adv-x="295" 
d="M269 234q0 -29 -12.5 -60.5t-32.5 -62t-45.5 -59.5t-51.5 -52h-67v8q15 11 32.5 25.5t34.5 31.5t31.5 34.5t23.5 33.5l-1 2q-5 -5 -18.5 -8.5t-27.5 -3.5q-22 0 -43.5 8t-37.5 23t-26 36.5t-10 48.5v4q0 26 10.5 47.5t28 36.5t41 23.5t48.5 8.5q58 0 90.5 -34.5
t32.5 -85.5v-5zM143 172q36 0 53.5 21.5t17.5 47.5q0 27 -17.5 48.5t-54.5 21.5q-35 0 -53 -22.5t-18 -48.5q0 -27 18.5 -47.5t53.5 -20.5z" />
    <glyph glyph-name="uni208A" unicode="&#x208a;" horiz-adv-x="339" 
d="M43 200h102v106h47v-106h102v-42h-102v-105h-47v105h-102v42z" />
    <glyph glyph-name="uni208B" unicode="&#x208b;" horiz-adv-x="337" 
d="M43 201h251v-42h-251v42z" />
    <glyph glyph-name="uni208C" unicode="&#x208c;" horiz-adv-x="337" 
d="M43 247h251v-42h-251v42zM43 155h251v-42h-251v42z" />
    <glyph glyph-name="uni208D" unicode="&#x208d;" horiz-adv-x="180" 
d="M145 402v-6q-25 -57 -36 -111t-11 -105t11 -105t36 -111v-5h-39q-32 58 -45 112.5t-13 108.5t13 108.5t45 113.5h39z" />
    <glyph glyph-name="uni208E" unicode="&#x208e;" horiz-adv-x="180" 
d="M35 -41v6q25 57 36 111t11 105t-11 105t-36 111v5h39q32 -58 45 -112.5t13 -108.5t-13 -108.5t-45 -113.5h-39z" />
    <glyph glyph-name="uni20A9" unicode="&#x20a9;" horiz-adv-x="1004" 
d="M459 411h86l-42 149h-2zM370 297l15 57h-153l16 -57h122zM577 297l-16 57h-118l-16 -57h150zM759 298l16 56h-153l15 -56h122zM311 83l43 158h-90l45 -158h2zM592 241h-180l-68 -241h-73l-71 241h-150v56h134l-17 57h-117v57h100l-66 226v13h64l68 -239h185l65 239h75
l65 -239h185l68 239h61v-13l-66 -226h100v-57h-117l-17 -56h134v-57h-150l-71 -241h-73zM698 83l45 158h-90l43 -158h2z" />
    <glyph glyph-name="Euro" unicode="&#x20ac;" horiz-adv-x="657" 
d="M602 209q-4 -46 -20.5 -87t-45 -71.5t-69 -48.5t-92.5 -17q-45 -1 -86 16.5t-73 50t-55 79t-32 104.5h-122l13 58h103v58h-83l13 58h75q9 58 32 105.5t56 81t74 51.5t86 18q51 0 90 -17t66 -46.5t43 -68.5t22 -84v-6h-61q-6 32 -16.5 61.5t-29 53t-46.5 37.5t-68 14
q-35 0 -65 -15t-53.5 -42t-39.5 -63.5t-24 -79.5h226l-13 -58h-220q-1 -7 -1 -13v-13v-16t1 -16h200l-13 -58h-179q8 -42 24.5 -77.5t40 -61t54 -39.5t66.5 -14q40 0 68.5 14t48 37.5t30 55t14.5 65.5h61v-6z" />
    <glyph glyph-name="uni2113" unicode="&#x2113;" horiz-adv-x="389" 
d="M71 214q12 7 26 16t25 20v218q0 60 9 98.5t24.5 60.5t36 30t43.5 8q41 0 64.5 -32.5t23.5 -87.5q0 -49 -12.5 -96.5t-32.5 -89.5t-44.5 -76.5t-48.5 -58.5v-109q0 -40 19.5 -51t47.5 -11q11 0 21 2t18 4v-60q-14 -5 -28.5 -6.5t-18.5 -1.5q-28 0 -50.5 5.5t-38.5 19.5
t-25 37.5t-9 58.5v58q-6 -5 -22 -13l-28 -14v71zM185 320q30 43 51.5 98.5t21.5 129.5q0 33 -7.5 47t-23.5 14q-23 0 -32.5 -33.5t-9.5 -120.5v-135z" />
    <glyph glyph-name="uni2116" unicode="&#x2116;" horiz-adv-x="991" 
d="M649 511q0 38 12 66.5t31.5 48t45 29.5t52.5 10q26 0 51.5 -10t45.5 -29.5t32 -48t12 -66.5v-10q0 -37 -12 -66t-32 -48.5t-45.5 -29.5t-51.5 -10q-27 0 -52.5 10t-45 29.5t-31.5 48.5t-12 66v10zM170 531h-4v-531h-61v650h62l344 -532h4v532h61v-650h-61zM789 619
q-43 0 -65 -33t-22 -80q0 -48 22 -78.5t65 -30.5t66 30.5t23 78.5q0 47 -23 80t-66 33z" />
    <glyph glyph-name="uni2117" unicode="&#x2117;" horiz-adv-x="782" 
d="M390 -10q-70 0 -129.5 26.5t-103.5 72.5t-69 107.5t-25 131.5t25 131.5t69 107t103.5 72t129.5 26.5t130 -26.5t104.5 -72t69.5 -107t25 -131.5t-25 -131.5t-69.5 -107.5t-104.5 -72.5t-130 -26.5zM390 622q-59 0 -109.5 -23t-88 -63t-59 -93.5t-21.5 -114.5t21.5 -114.5
t59 -93.5t88 -63.5t109.5 -23.5t110.5 23.5t89 63.5t59 93.5t21.5 114.5t-21.5 114.5t-59 93.5t-89 63t-110.5 23zM548 393q-1 -24 -11.5 -45t-27 -36.5t-38.5 -24t-47 -8.5h-88v-134h-51v371h139q25 0 47.5 -7.5t39.5 -22.5t27 -36t10 -48v-9zM336 465v-136h89q38 0 55 22
t17 47q0 10 -3.5 22t-11.5 22t-20 16.5t-30 6.5h-96z" />
    <glyph glyph-name="uni2120" unicode="&#x2120;" horiz-adv-x="582" 
d="M261 405v245h58l68 -163l66 163h60v-245h-42l1 152q0 13 0.5 26t1.5 26h-1q-5 -15 -9.5 -27.5t-10.5 -26.5l-48 -110h-41l-48 115q-5 11 -9 24.5t-8 24.5h-1q1 -11 2 -25t1 -25l1 -154h-41zM41 589q0 19 7.5 32t20 21.5t28 12t31.5 3.5q15 0 30.5 -4t28 -12t20.5 -21.5
t9 -33.5h-39q0 14 -12 26.5t-38 12.5q-21 0 -32 -9t-11 -22q0 -16 9 -25q8 -8 22 -12.5t30.5 -9t33 -11.5t28.5 -19q8 -8 12.5 -18.5t4.5 -23.5v-5q0 -37 -27.5 -55.5t-59.5 -18.5q-39 0 -67 21t-30 58h40q3 -19 19 -31.5t40 -12.5q25 0 34.5 10.5t9.5 26.5q0 15 -9 24
q-8 8 -23 13t-32 9.5t-33 10.5t-27 17q-8 8 -13 18t-5 24v4z" />
    <glyph glyph-name="trademark" unicode="&#x2122;" horiz-adv-x="595" 
d="M45 650h186v-38h-71v-207h-44v207h-71v38zM274 405v245h58l68 -163l66 163h60v-245h-42l1 152q0 13 0.5 26t1.5 26h-1q-5 -15 -9.5 -27.5t-10.5 -26.5l-48 -110h-41l-48 115q-5 11 -9 24.5t-8 24.5h-1q1 -11 2 -25t1 -25l1 -154h-41z" />
    <glyph glyph-name="uni2126" unicode="&#x2126;" horiz-adv-x="710" 
d="M73 387q0 61 19 112t55.5 88t89 57.5t119.5 20.5q66 0 118.5 -20.5t89 -57.5t56 -88t19.5 -112q0 -45 -13 -91.5t-33.5 -90.5t-46 -82.5t-51.5 -66.5v-2q17 1 26 1h30h96v-55h-249l-2 38q30 22 61.5 60t57 84.5t42 98t16.5 100.5q0 52 -15.5 94t-44 72t-68.5 46t-89 16
t-89.5 -16t-69.5 -46t-44.5 -72t-15.5 -94q0 -49 16.5 -100.5t42.5 -98t57.5 -84.5t60.5 -60l-2 -38h-248v55h95h30t26 -1v2q-25 28 -50.5 66.5t-46 82.5t-33 90.5t-12.5 91.5z" />
    <glyph glyph-name="estimated" unicode="&#x212e;" horiz-adv-x="743" 
d="M690 228q-19 -125 -101.5 -182t-216.5 -57q-76 0 -137.5 25t-104.5 70.5t-66.5 110t-23.5 143.5t24 143t67.5 109.5t105.5 70.5t137 25q74 0 134.5 -25t104 -70.5t67 -109.5t23.5 -143v-29h-551q2 -54 14.5 -102t39 -84t68.5 -57t104 -21q103 0 166.5 43.5t79.5 139.5h66
zM591 365q-1 54 -13 102t-37 84t-66 57t-101 21t-101.5 -21t-67.5 -57t-38.5 -84t-14.5 -102h439z" />
    <glyph glyph-name="uni2190" unicode="&#x2190;" horiz-adv-x="1009" 
d="M266 352h565v-52h-563l265 -264l-38 -36l-318 318v16l318 318l38 -36z" />
    <glyph glyph-name="uni2191" unicode="&#x2191;" horiz-adv-x="982" 
d="M517 561v-561h-52v561l-264 -266l-36 39l318 317h16l318 -317l-36 -39z" />
    <glyph glyph-name="uni2192" unicode="&#x2192;" horiz-adv-x="1009" 
d="M475 616l38 36l318 -318v-16l-318 -318l-38 36l265 264h-563v52h565z" />
    <glyph glyph-name="uni2193" unicode="&#x2193;" horiz-adv-x="982" 
d="M781 355l36 -39l-318 -317h-16l-318 317l36 39l264 -266v561h52v-561z" />
    <glyph glyph-name="uni2196" unicode="&#x2196;" horiz-adv-x="982" 
d="M320 536l430 -431l-37 -37l-430 431v-375h-51v451l11 11h450v-50h-373z" />
    <glyph glyph-name="uni2197" unicode="&#x2197;" horiz-adv-x="981" 
d="M289 536v50h450l11 -11v-451h-51v375l-430 -431l-37 37l430 431h-373z" />
    <glyph glyph-name="uni2198" unicode="&#x2198;" horiz-adv-x="982" 
d="M693 115v-51h-450q-5 6 -11 11v452h51v-375l430 430l37 -37l-430 -430h373z" />
    <glyph glyph-name="uni2199" unicode="&#x2199;" horiz-adv-x="981" 
d="M662 114l-430 431l37 37l430 -431v375h51v-451l-11 -11h-450v50h373z" />
    <glyph glyph-name="partialdiff" unicode="&#x2202;" horiz-adv-x="674" 
d="M95 205q0 45 15 85t43 70.5t68.5 48t90.5 17.5q70 0 121 -26.5t75 -61.5q-4 66 -22 115.5t-47 82.5t-67 49.5t-82 16.5q-42 0 -77.5 -7.5t-62.5 -21.5l-17 61q26 14 66 23t91 9q50 0 100.5 -20.5t91.5 -63.5t67 -110t26 -161q0 -74 -14.5 -134t-45 -102t-77.5 -64.5
t-112 -22.5q-53 0 -96 18t-73 48t-46 69t-16 82zM165 206q0 -32 12 -61t34 -50.5t52 -34.5t67 -13q34 0 64 12t52 33.5t35 50.5t13 63q0 33 -10.5 62t-31.5 51.5t-51.5 35.5t-70.5 13t-71 -13t-52 -35t-31.5 -51.5t-10.5 -62.5z" />
    <glyph glyph-name="uni2206" unicode="&#x2206;" horiz-adv-x="766" 
d="M712 42q-1 -11 -0.5 -21t-0.5 -21h-656q-1 11 -0.5 21t-0.5 21l296 611h64zM544 52q25 0 56.5 -1t47.5 -2l-263 550h-2l-265 -550q16 1 48 2t58 1h320z" />
    <glyph glyph-name="product" unicode="&#x220f;" horiz-adv-x="750" 
d="M577 0h-63v594h-278v-594h-62v594h-107v56h616v-56h-106v-594z" />
    <glyph glyph-name="summation" unicode="&#x2211;" horiz-adv-x="604" 
d="M532 650v-56h-267h-47t-54 2v-2l278 -245v-35l-302 -259v-2q26 1 51.5 1.5t51.5 0.5h311v-55h-497v53l319 280q-74 66 -146.5 133t-146.5 133v51h449z" />
    <glyph glyph-name="minus" unicode="&#x2212;" horiz-adv-x="555" 
d="M52 357h451v-56h-451v56z" />
    <glyph glyph-name="radical" unicode="&#x221a;" horiz-adv-x="666" 
d="M36 451l141 35l32 -154l32 -154q5 -26 9.5 -54.5t8.5 -42.5h2q7 18 19 44t26 49l262 469h69l-370 -649h-48l-101 430q-20 -5 -41 -10.5t-41 -10.5v48z" />
    <glyph glyph-name="infinity" unicode="&#x221e;" horiz-adv-x="776" 
d="M548 476q33 0 61.5 -8.5t49.5 -25t33.5 -40.5t12.5 -56t-12.5 -56.5t-33.5 -41t-49.5 -24.5t-61.5 -8q-48 0 -88 25t-71 57q-32 -32 -73 -57t-88 -25q-33 0 -61.5 8t-49.5 24.5t-33.5 41t-12.5 56.5t12.5 56t33.5 40.5t49.5 25t61.5 8.5q50 0 89.5 -24.5t71.5 -59.5
q32 35 71 59.5t88 24.5zM224 421q-16 0 -32 -3.5t-28.5 -12t-20 -23t-7.5 -36.5q0 -23 7.5 -38t20.5 -23.5t29 -11.5t32 -3q41 0 72.5 24.5t50.5 51.5q-20 29 -51.5 52t-72.5 23zM551 269q16 0 32 3t29 11.5t21 23.5t8 38t-8 37.5t-21 22.5t-29 11.5t-32 3.5
q-38 0 -70.5 -23.5t-52.5 -51.5q19 -29 51 -52.5t72 -23.5z" />
    <glyph glyph-name="integral" unicode="&#x222b;" horiz-adv-x="372" 
d="M142 532q0 79 32.5 116t102.5 37q15 0 36 -4t44 -13v-55q-21 8 -41.5 11.5t-36.5 3.5q-41 0 -59.5 -21t-18.5 -66v-555q0 -80 -30 -120t-103 -40q-16 0 -30.5 3t-37.5 12v58q20 -8 35 -11t30 -3q49 0 63 23t14 63v561z" />
    <glyph glyph-name="approxequal" unicode="&#x2248;" horiz-adv-x="635" 
d="M72 398q34 21 63 27.5t55 6.5q31 0 62 -5t62 -11t61.5 -11t61.5 -5q29 0 58.5 7.5t60.5 26.5q2 0 3.5 0.5t3.5 0.5v-52q-35 -24 -66.5 -31t-59.5 -7q-30 0 -60.5 5t-61.5 10.5t-62 10.5t-62 5q-29 0 -56 -6t-55 -23q-2 0 -4 -0.5t-4 -0.5v52zM72 244q34 21 63 27.5
t55 6.5q31 0 62 -5t62 -11t61.5 -11t61.5 -5q29 0 58.5 7.5t60.5 26.5q2 0 3.5 0.5t3.5 0.5v-53q-35 -23 -66.5 -30.5t-59.5 -7.5q-30 0 -60.5 5t-61.5 10.5t-62 10.5t-62 5q-29 0 -56 -6t-55 -22q-2 0 -4 -1t-4 -1v53z" />
    <glyph glyph-name="notequal" unicode="&#x2260;" horiz-adv-x="636" 
d="M72 431h268l93 159h54v-14l-85 -145h162v-55h-194l-56 -98h250v-56h-282l-98 -168h-54v14l90 154h-148v56h180l56 98h-236v55z" />
    <glyph glyph-name="lessequal" unicode="&#x2264;" horiz-adv-x="628" 
d="M174 407v-2l361 -174v-73l-450 219v53l449 219v-70zM81 100h456v-57h-456v57z" />
    <glyph glyph-name="greaterequal" unicode="&#x2265;" horiz-adv-x="628" 
d="M94 579v70l449 -219v-53l-450 -219v73l361 174v2zM547 43h-456v57h456v-57z" />
    <glyph glyph-name="uni25A0" unicode="&#x25a0;" horiz-adv-x="982" 
d="M152 0v675h678v-675h-678z" />
    <glyph glyph-name="uni25A1" unicode="&#x25a1;" horiz-adv-x="982" 
d="M152 0v675h678v-675h-678zM792 637h-602v-599h602v599z" />
    <glyph glyph-name="uni25AA" unicode="&#x25aa;" horiz-adv-x="982" 
d="M257 0v470h468v-470h-468z" />
    <glyph glyph-name="uni25AB" unicode="&#x25ab;" horiz-adv-x="982" 
d="M257 0v470h468v-470h-468zM684 430h-387v-390h387v390z" />
    <glyph glyph-name="lozenge" unicode="&#x25ca;" horiz-adv-x="561" 
d="M259 658h43l203 -333l-203 -332h-43l-202 332zM438 325l-157 264h-2l-155 -265l154 -265h2z" />
    <glyph glyph-name="uni25CB" unicode="&#x25cb;" horiz-adv-x="982" 
d="M492 686q72 0 135 -27.5t110.5 -75t74.5 -111t27 -135.5t-27 -135.5t-74.5 -111t-110.5 -75t-135 -27.5t-135.5 27.5t-111 75t-75 111t-27.5 135.5t27.5 135.5t75 111t111 75t135.5 27.5zM492 29q64 0 120.5 24t98.5 66t66 98t24 120t-24 120.5t-66 98.5t-98.5 66
t-120.5 24t-120 -24t-98 -66t-66 -98.5t-24 -120.5t24 -120t66 -98t98 -66t120 -24z" />
    <glyph glyph-name="uni25CF" unicode="&#x25cf;" horiz-adv-x="982" 
d="M492 686q72 0 135 -27.5t110.5 -75t74.5 -111t27 -135.5t-27 -135.5t-74.5 -111t-110.5 -75t-135 -27.5t-135.5 27.5t-111 75t-75 111t-27.5 135.5t27.5 135.5t75 111t111 75t135.5 27.5z" />
    <glyph glyph-name="uni26AC" unicode="&#x26ac;" horiz-adv-x="982" 
d="M491 477q50 0 94.5 -19.5t77.5 -52.5t52 -77t19 -94t-19 -94.5t-52 -77.5t-77.5 -52t-94.5 -19t-94.5 19t-77.5 52t-52 77.5t-19 94.5t19 94t52 77t77.5 52.5t94.5 19.5zM691 234q0 42 -15.5 78.5t-42.5 64t-63.5 43.5t-78.5 16q-41 0 -77.5 -16t-64 -43.5t-43.5 -64
t-16 -78.5t16 -78.5t43.5 -64t64 -43.5t77.5 -16q42 0 78.5 16t63.5 43.5t42.5 64t15.5 78.5z" />
    <glyph glyph-name="uniE181" unicode="&#xe181;" horiz-adv-x="422" 
d="M230 597q-50 0 -82 -32.5t-32 -102.5t32 -102.5t82 -32.5q32 0 59 19t35 59h47v-9q-2 -25 -14.5 -46t-32 -36t-44.5 -23t-51 -8q-75 0 -119.5 48t-44.5 127v8q0 79 44.5 127t119.5 48q26 0 50.5 -8t43.5 -23t32 -35.5t16 -46.5v-9h-47q-8 40 -35 59t-59 19z" />
    <glyph glyph-name="uniFF3F" unicode="&#xff3f;" horiz-adv-x="438" 
d="M-3 -135h442v-53h-442v53z" />
    <glyph glyph-name="a.hist" horiz-adv-x="625" 
d="M125 247q0 -43 11 -80.5t33.5 -65.5t56.5 -44.5t80 -16.5q45 0 78 17t54 45.5t31 66t10 78.5q0 42 -9.5 80.5t-30.5 68t-53.5 47t-79.5 17.5q-48 0 -82.5 -16.5t-56 -45t-32 -67.5t-10.5 -84zM536 0h-43l-20 65h-2q-10 -18 -28.5 -32.5t-41 -25.5t-48 -16.5t-51.5 -5.5
q-45 0 -87.5 15t-76.5 46.5t-54.5 79t-20.5 113.5v19q0 56 15.5 103t46 81.5t76.5 53.5t106 19q24 0 48.5 -6t46.5 -16.5t40.5 -24.5t30.5 -31h2l19 63h42v-500z" />
    <glyph glyph-name="a.superior" horiz-adv-x="294" 
d="M81 377q0 -23 14.5 -35t38.5 -12q11 0 23.5 4.5t23 13t17.5 20.5t7 27v22q-13 5 -28 7t-29 2q-24 0 -45.5 -11.5t-21.5 -37.5zM31 376q0 36 23 57q15 17 41.5 24.5t49.5 7.5q31 0 60 -8v20q0 27 -14.5 43t-45.5 16q-23 0 -37.5 -10.5t-16.5 -33.5h-45v4q4 42 32.5 60.5
t69.5 18.5q46 0 75.5 -24.5t29.5 -84.5v-169h-36l-9 30h-1q-14 -18 -36.5 -28.5t-45.5 -10.5q-39 0 -66.5 23t-27.5 61v4z" />
    <glyph glyph-name="aacute.hist" horiz-adv-x="625" 
d="M125 247q0 -43 11 -80.5t33.5 -65.5t56.5 -44.5t80 -16.5q45 0 78 17t54 45.5t31 66t10 78.5q0 42 -9.5 80.5t-30.5 68t-53.5 47t-79.5 17.5q-48 0 -82.5 -16.5t-56 -45t-32 -67.5t-10.5 -84zM536 0h-43l-20 65h-2q-10 -18 -28.5 -32.5t-41 -25.5t-48 -16.5t-51.5 -5.5
q-45 0 -87.5 15t-76.5 46.5t-54.5 79t-20.5 113.5v19q0 56 15.5 103t46 81.5t76.5 53.5t106 19q24 0 48.5 -6t46.5 -16.5t40.5 -24.5t30.5 -31h2l19 63h42v-500zM174 583l196 137l36 -57l-210 -114z" />
    <glyph glyph-name="abreve.hist" horiz-adv-x="625" 
d="M125 247q0 -43 11 -80.5t33.5 -65.5t56.5 -44.5t80 -16.5q45 0 78 17t54 45.5t31 66t10 78.5q0 42 -9.5 80.5t-30.5 68t-53.5 47t-79.5 17.5q-48 0 -82.5 -16.5t-56 -45t-32 -67.5t-10.5 -84zM536 0h-43l-20 65h-2q-10 -18 -28.5 -32.5t-41 -25.5t-48 -16.5t-51.5 -5.5
q-45 0 -87.5 15t-76.5 46.5t-54.5 79t-20.5 113.5v19q0 56 15.5 103t46 81.5t76.5 53.5t106 19q24 0 48.5 -6t46.5 -16.5t40.5 -24.5t30.5 -31h2l19 63h42v-500zM439 663q-7 -49 -48.5 -76.5t-99.5 -27.5t-98.5 27.5t-47.5 76.5h60q8 -31 32.5 -45t54.5 -14t54.5 14t32.5 45
h60z" />
    <glyph glyph-name="acircumflex.hist" horiz-adv-x="625" 
d="M125 247q0 -43 11 -80.5t33.5 -65.5t56.5 -44.5t80 -16.5q45 0 78 17t54 45.5t31 66t10 78.5q0 42 -9.5 80.5t-30.5 68t-53.5 47t-79.5 17.5q-48 0 -82.5 -16.5t-56 -45t-32 -67.5t-10.5 -84zM536 0h-43l-20 65h-2q-10 -18 -28.5 -32.5t-41 -25.5t-48 -16.5t-51.5 -5.5
q-45 0 -87.5 15t-76.5 46.5t-54.5 79t-20.5 113.5v19q0 56 15.5 103t46 81.5t76.5 53.5t106 19q24 0 48.5 -6t46.5 -16.5t40.5 -24.5t30.5 -31h2l19 63h42v-500zM159 588l142 104l147 -104l-21 -35l-126 70l-119 -70z" />
    <glyph glyph-name="acute.cap" horiz-adv-x="499" 
d="M128 735l196 137l36 -57l-210 -114z" />
    <glyph glyph-name="adieresis.hist" horiz-adv-x="625" 
d="M125 247q0 -43 11 -80.5t33.5 -65.5t56.5 -44.5t80 -16.5q45 0 78 17t54 45.5t31 66t10 78.5q0 42 -9.5 80.5t-30.5 68t-53.5 47t-79.5 17.5q-48 0 -82.5 -16.5t-56 -45t-32 -67.5t-10.5 -84zM536 0h-43l-20 65h-2q-10 -18 -28.5 -32.5t-41 -25.5t-48 -16.5t-51.5 -5.5
q-45 0 -87.5 15t-76.5 46.5t-54.5 79t-20.5 113.5v19q0 56 15.5 103t46 81.5t76.5 53.5t106 19q24 0 48.5 -6t46.5 -16.5t40.5 -24.5t30.5 -31h2l19 63h42v-500zM423 615q0 -20 -14.5 -33.5t-34.5 -13.5t-34.5 13.5t-14.5 33.5v2q0 22 14.5 34t34.5 12t34.5 -12t14.5 -34v-2
zM259 615q0 -20 -14.5 -33.5t-34.5 -13.5t-34.5 13.5t-14.5 33.5v2q0 22 14.5 34t34.5 12t34.5 -12t14.5 -34v-2z" />
    <glyph glyph-name="agrave.hist" horiz-adv-x="625" 
d="M125 247q0 -43 11 -80.5t33.5 -65.5t56.5 -44.5t80 -16.5q45 0 78 17t54 45.5t31 66t10 78.5q0 42 -9.5 80.5t-30.5 68t-53.5 47t-79.5 17.5q-48 0 -82.5 -16.5t-56 -45t-32 -67.5t-10.5 -84zM536 0h-43l-20 65h-2q-10 -18 -28.5 -32.5t-41 -25.5t-48 -16.5t-51.5 -5.5
q-45 0 -87.5 15t-76.5 46.5t-54.5 79t-20.5 113.5v19q0 56 15.5 103t46 81.5t76.5 53.5t106 19q24 0 48.5 -6t46.5 -16.5t40.5 -24.5t30.5 -31h2l19 63h42v-500zM388 549l-210 114l36 57l196 -137z" />
    <glyph glyph-name="amacron.hist" horiz-adv-x="625" 
d="M125 247q0 -43 11 -80.5t33.5 -65.5t56.5 -44.5t80 -16.5q45 0 78 17t54 45.5t31 66t10 78.5q0 42 -9.5 80.5t-30.5 68t-53.5 47t-79.5 17.5q-48 0 -82.5 -16.5t-56 -45t-32 -67.5t-10.5 -84zM536 0h-43l-20 65h-2q-10 -18 -28.5 -32.5t-41 -25.5t-48 -16.5t-51.5 -5.5
q-45 0 -87.5 15t-76.5 46.5t-54.5 79t-20.5 113.5v19q0 56 15.5 103t46 81.5t76.5 53.5t106 19q24 0 48.5 -6t46.5 -16.5t40.5 -24.5t30.5 -31h2l19 63h42v-500zM161 643h263v-53h-263v53z" />
    <glyph glyph-name="aogonek.hist" horiz-adv-x="625" 
d="M558 -168q-14 -7 -34 -9.5t-36 -2.5q-26 0 -43.5 7t-28.5 18.5t-15.5 25t-4.5 26.5q0 42 28 72.5t65 44.5l-16 51h-2q-10 -18 -28.5 -32.5t-41 -25.5t-48 -16.5t-51.5 -5.5q-45 0 -87.5 15t-76.5 46.5t-54.5 79t-20.5 113.5v19q0 56 15.5 103t46 81.5t76.5 53.5t106 19
q24 0 48.5 -6t47 -16.5t41 -25t30.5 -31.5l20 64h42v-500q-48 -22 -64.5 -47.5t-16.5 -45.5q0 -18 12 -28.5t33 -10.5q11 0 23 2t26 7h9v-45zM125 247q0 -43 11 -80.5t33.5 -65.5t56.5 -44.5t80 -16.5q45 0 78 17t54 45.5t31 66t10 78.5q0 42 -9.5 80.5t-30.5 68t-53.5 47
t-79.5 17.5q-48 0 -82.5 -16.5t-56 -45t-32 -67.5t-10.5 -84z" />
    <glyph glyph-name="aring.hist" horiz-adv-x="625" 
d="M344 578q0 20 -12 33.5t-32 13.5q-19 0 -31.5 -13.5t-12.5 -33.5t12.5 -34.5t31.5 -14.5q20 0 32 14.5t12 34.5zM125 247q0 -43 11 -80.5t33.5 -65.5t56.5 -44.5t80 -16.5q45 0 78 17t54 45.5t31 66t10 78.5q0 42 -9.5 80.5t-30.5 68t-53.5 47t-79.5 17.5
q-48 0 -82.5 -16.5t-56 -45t-32 -67.5t-10.5 -84zM471 65q-10 -18 -28.5 -32.5t-41 -25.5t-48 -16.5t-51.5 -5.5q-45 0 -87.5 15t-76.5 46.5t-54.5 79t-20.5 113.5v19q0 96 44.5 163t133.5 87q-14 13 -22.5 30.5t-8.5 38.5q0 38 26 63.5t64 25.5q39 0 65 -25.5t26 -63.5
q0 -42 -32 -69q35 -9 66 -27.5t48 -43.5h2l19 63h42v-500h-43l-20 65h-2z" />
    <glyph glyph-name="aringacute.hist" horiz-adv-x="625" 
d="M346 576q0 20 -12 33.5t-32 13.5q-19 0 -31.5 -13.5t-12.5 -33.5t12.5 -34.5t31.5 -14.5q20 0 32 14.5t12 34.5zM125 247q0 -43 11 -80.5t33.5 -65.5t56.5 -44.5t80 -16.5q45 0 78 17t54 45.5t31 66t10 78.5q0 42 -9.5 80.5t-30.5 68t-53.5 47t-79.5 17.5
q-48 0 -82.5 -16.5t-56 -45t-32 -67.5t-10.5 -84zM471 65q-10 -18 -28.5 -32.5t-41 -25.5t-48 -16.5t-51.5 -5.5q-45 0 -87.5 15t-76.5 46.5t-54.5 79t-20.5 113.5v19q0 96 44.5 163t133.5 87q-29 27 -29 67q0 38 26 63.5t64 25.5q39 0 65 -25.5t26 -63.5q0 -41 -30 -68
q34 -9 63.5 -27.5t46.5 -42.5h2l19 63h42v-500h-43l-20 65h-2zM183 662l196 137l36 -57l-210 -114z" />
    <glyph glyph-name="at.cap" horiz-adv-x="782" 
d="M427 -11q-80 0 -147 25.5t-115 72t-75 111t-27 141.5q0 71 26.5 131t73.5 103.5t111 68.5t140 25q71 0 129 -24.5t98.5 -67t62.5 -99.5t22 -122q0 -45 -10.5 -80.5t-28 -59.5t-41.5 -37t-51 -13q-29 0 -52 11.5t-37 41.5q-9 -16 -23.5 -29t-32 -22t-36.5 -13.5t-36 -4.5
q-27 0 -51 8.5t-42 23.5t-28.5 35t-10.5 43v7q0 51 36.5 83t93.5 32q35 0 62.5 -9t51.5 -26v24q0 26 -4 44.5t-16 31.5t-32.5 19t-53.5 6q-26 0 -52 -6t-46 -22h-12v45q25 15 55 21.5t65 6.5q30 0 56 -7t46 -23t31.5 -41.5t11.5 -63.5v-84q0 -47 17 -66t40 -19q20 0 35 11.5
t25 30.5t14.5 43.5t4.5 50.5q0 71 -22.5 122.5t-59 85t-83.5 49.5t-96 16q-61 0 -116 -20.5t-95.5 -57t-64.5 -87.5t-24 -112q0 -70 24 -126.5t66 -96.5t99 -61.5t122 -21.5q53 0 93 10.5t78 30.5h13v-44q-36 -21 -78 -33t-104 -12zM297 261q0 -35 26 -51.5t61 -16.5
q21 0 39.5 8t33 21t22.5 29t8 32v14q-23 17 -45.5 28t-62.5 11q-38 0 -60 -20.5t-22 -54.5z" />
    <glyph glyph-name="atilde.hist" horiz-adv-x="625" 
d="M125 247q0 -43 11 -80.5t33.5 -65.5t56.5 -44.5t80 -16.5q45 0 78 17t54 45.5t31 66t10 78.5q0 42 -9.5 80.5t-30.5 68t-53.5 47t-79.5 17.5q-48 0 -82.5 -16.5t-56 -45t-32 -67.5t-10.5 -84zM536 0h-43l-20 65h-2q-10 -18 -28.5 -32.5t-41 -25.5t-48 -16.5t-51.5 -5.5
q-45 0 -87.5 15t-76.5 46.5t-54.5 79t-20.5 113.5v19q0 56 15.5 103t46 81.5t76.5 53.5t106 19q24 0 48.5 -6t46.5 -16.5t40.5 -24.5t30.5 -31h2l19 63h42v-500zM147 565q0 18 5.5 35.5t16.5 32t28 23.5t40 9t39 -7.5t30 -16t26.5 -16t27.5 -7.5q17 0 30.5 10t13.5 42h47
q0 -18 -5.5 -35.5t-16.5 -32t-28 -23.5t-40 -9q-22 0 -38.5 7.5t-30.5 16t-26.5 16t-27.5 7.5q-17 0 -30.5 -10t-13.5 -42h-47z" />
    <glyph glyph-name="b.superior" horiz-adv-x="345" 
d="M314 429q0 -61 -34.5 -101t-100.5 -40q-26 0 -50 12t-36 29h-2l-11 -32h-34v373h49v-134h1q16 20 39.5 29.5t51.5 9.5q24 0 46.5 -8.5t40.5 -26t29 -43t11 -59.5v-9zM177 330q46 0 66.5 29.5t20.5 72.5q0 42 -21 71.5t-66 29.5q-43 0 -63.5 -29.5t-20.5 -71.5t20 -72
t64 -30z" />
    <glyph glyph-name="braceleft.cap" horiz-adv-x="390" 
d="M154 326q12 -7 22 -16t17 -24t11 -37.5t4 -55.5v-152q0 -28 5 -49t28 -21h51v-55h-39q-56 0 -82.5 28t-26.5 81q0 12 2 26.5t2 26.5v101q0 27 -2.5 49t-10 39t-21.5 30.5t-37 23.5v12q23 10 37 23t21.5 30.5t10 39.5t2.5 49v99q0 12 -2 26t-2 27q0 52 26.5 80.5
t82.5 28.5h39v-55h-51q-23 0 -28 -21t-5 -49v-152q0 -33 -4 -55t-11 -37t-17 -24t-22 -15v-2z" />
    <glyph glyph-name="braceright.cap" horiz-adv-x="390" 
d="M236 328q-12 6 -22 15t-17 24t-11 37t-4 55v152q0 28 -5 49t-28 21h-51v55h39q56 0 82.5 -28.5t26.5 -80.5q0 -13 -2 -27t-2 -26v-99q0 -27 2.5 -49t10 -39.5t21.5 -30.5t37 -23v-12q-23 -10 -37 -23.5t-21.5 -30.5t-10 -39t-2.5 -49v-101q0 -12 2 -26.5t2 -26.5
q0 -53 -26.5 -81t-82.5 -28h-39v55h51q23 0 28 21t5 49v152q0 33 4 55.5t11 37.5t17 24t22 16v2z" />
    <glyph glyph-name="bracketleft.cap" horiz-adv-x="325" 
d="M98 736h144v-55h-86v-710h86v-55h-144v820z" />
    <glyph glyph-name="bracketright.cap" horiz-adv-x="325" 
d="M227 -84h-144v55h86v710h-86v55h144v-820z" />
    <glyph glyph-name="breve.cap" horiz-adv-x="492" 
d="M393 801q-7 -49 -48.5 -76.5t-99.5 -27.5t-98.5 27.5t-47.5 76.5h60q8 -31 32.5 -45t54.5 -14t54.5 14t32.5 45h60z" />
    <glyph glyph-name="bullet" horiz-adv-x="476" 
d="M338 291q0 -42 -29 -69t-71 -27t-71 27t-29 69v4q0 45 29 69.5t71 24.5t71 -24.5t29 -69.5v-4z" />
    <glyph glyph-name="c.superior" horiz-adv-x="307" 
d="M31 436q0 63 37.5 101t94.5 38q48 0 80.5 -26t38.5 -71v-4h-45q-5 28 -23 44t-50 16q-42 0 -62 -29t-20 -74q0 -43 20.5 -72t62.5 -29q63 0 72 61h45v-4q-5 -46 -37.5 -72.5t-81.5 -26.5q-57 0 -94.5 38.5t-37.5 102.5v7z" />
    <glyph glyph-name="caron.Slovak" 
d="M239 691h69v-11l-73 -184h-43z" />
    <glyph glyph-name="caron.cap" 
d="M394 806l-142 -104l-147 104l21 35l126 -70l119 70z" />
    <glyph glyph-name="cedilla.alt" 
d="M214 -39q53 -8 72.5 -28t19.5 -43q0 -18 -9.5 -31t-25 -21.5t-35.5 -13t-41 -4.5q-40 0 -71 11v46h10q17 -5 33.5 -7t25.5 -2q53 0 53 27q0 11 -12.5 18t-33.5 10z" />
    <glyph glyph-name="circumflex.cap" 
d="M105 738l142 104l147 -104l-21 -35l-126 70l-119 -70z" />
    <glyph glyph-name="d.superior" horiz-adv-x="346" 
d="M168 534q-45 0 -65.5 -29.5t-20.5 -73.5q0 -42 20.5 -71.5t65.5 -29.5q44 0 64.5 30t20.5 71t-20 72t-65 31zM31 434q0 61 35.5 101t99.5 40q29 0 50 -9.5t34 -26.5h1v131h49v-373h-36l-11 33h-1q-14 -21 -39.5 -31.5t-52.5 -10.5q-24 0 -47 9t-41.5 26.5t-29.5 43
t-11 59.5v8z" />
    <glyph glyph-name="dieresis.cap" horiz-adv-x="499" 
d="M381 761q0 -20 -14.5 -33.5t-34.5 -13.5t-34.5 13.5t-14.5 33.5v2q0 22 14.5 34t34.5 12t34.5 -12t14.5 -34v-2zM217 761q0 -20 -14.5 -33.5t-34.5 -13.5t-34.5 13.5t-14.5 33.5v2q0 22 14.5 34t34.5 12t34.5 -12t14.5 -34v-2z" />
    <glyph glyph-name="dotaccent.cap" horiz-adv-x="486" 
d="M292 758q0 -20 -14.5 -33.5t-34.5 -13.5t-34.5 13.5t-14.5 33.5v2q0 22 14.5 34t34.5 12t34.5 -12t14.5 -34v-2z" />
    <glyph glyph-name="doublegrave" 
d="M201 548l-166 110l42 57l143 -133zM374 548l-167 108l44 59l144 -133z" />
    <glyph glyph-name="doublegrave.cap" 
d="M201 699l-166 110l42 57l143 -133zM374 699l-167 108l44 59l144 -133z" />
    <glyph glyph-name="e.superior" horiz-adv-x="313" 
d="M279 373q-11 -41 -42 -63t-76 -22q-57 0 -93.5 38.5t-36.5 102.5v7q0 63 36 101t93 38q30 0 53 -11t38 -29.5t23 -43.5t8 -54v-20h-200q3 -38 23 -62.5t58 -24.5q50 0 67 43h49zM233 457q-3 28 -19 52t-53 24q-35 0 -54 -20.5t-24 -55.5h150z" />
    <glyph glyph-name="eight.LT" horiz-adv-x="600" 
d="M518 166q0 -44 -16 -78t-44.5 -57t-69 -35t-88.5 -12t-88.5 12t-69 35t-44.5 57t-16 78v7q0 25 9 50t24 46.5t35 38.5t42 26v2q-17 11 -32.5 27t-27.5 35t-19.5 39.5t-7.5 40.5v8q0 44 15.5 77.5t42 56t62 34t75.5 11.5t75.5 -11.5t62 -34t42 -56t15.5 -77.5v-8
q0 -20 -7.5 -40.5t-19.5 -39.5t-27.5 -35t-32.5 -27v-2q22 -9 42 -26t35 -38.5t24 -46.5t9 -50v-7zM431 483q0 57 -34.5 92t-96.5 35t-96.5 -35t-34.5 -92q0 -22 9 -44t26 -39.5t41 -28t55 -10.5t55 10.5t41 28t26 39.5t9 44zM147 165q0 -60 42 -92t111 -32t111 32t42 92
q0 63 -43 98t-110 35t-110 -35t-43 -98z" />
    <glyph glyph-name="eight.inf" horiz-adv-x="299" 
d="M225 1q21 -10 34.5 -32t13.5 -49v-3q0 -51 -34.5 -77.5t-89.5 -26.5q-54 0 -88.5 26.5t-34.5 77.5v3q0 27 14 49t35 32v3q-13 7 -25 27.5t-12 43.5v4q0 48 32 74.5t79 26.5q48 0 80.5 -26.5t32.5 -74.5v-4q0 -23 -12.5 -43.5t-24.5 -27.5v-3zM210 78q0 26 -18.5 41
t-41.5 15q-25 0 -42.5 -15t-17.5 -41q0 -20 16 -36.5t44 -16.5t44 16.5t16 36.5zM76 -85q0 -22 19.5 -38t54.5 -16t54.5 16t19.5 38q0 29 -22 43.5t-52 14.5t-52 -14.5t-22 -43.5z" />
    <glyph glyph-name="emdash.cap" horiz-adv-x="721" 
d="M607 362v-58h-525v58h525z" />
    <glyph glyph-name="endash.cap" horiz-adv-x="556" 
d="M437 362v-58h-355v58h355z" />
    <glyph glyph-name="equal.inf" horiz-adv-x="337" 
d="M43 68h251v-42h-251v42zM43 -24h251v-42h-251v42z" />
    <glyph glyph-name="exclamdown.cap" horiz-adv-x="310" 
d="M187 464l10 -451v-13h-69v13l10 451h49zM113 609q0 20 14.5 33.5t34.5 13.5t34.5 -13.5t14.5 -33.5v-2q0 -22 -14.5 -34t-34.5 -12t-34.5 12t-14.5 34v2z" />
    <glyph glyph-name="f.lig" horiz-adv-x="406" 
d="M52 481l77 18v47q0 169 148 169q19 0 36.5 -3t38.5 -11v-52h-15q-14 8 -30.5 9.5t-30.5 1.5q-47 0 -67 -26t-20 -76v-58h159v-54h-159v-446h-60v446h-77v35z" />
    <glyph glyph-name="f.superior" horiz-adv-x="220" 
d="M25 555l41 10v19q0 94 85 94q25 0 49 -7v-41h-9q-8 4 -19 5t-18 1q-22 0 -31 -11t-9 -34v-24h84v-39h-84v-231h-48v231h-41v27z" />
    <glyph glyph-name="f_b" horiz-adv-x="1007" 
d="M52 481l77 18v47q0 169 148 169q19 0 36.5 -3t38.5 -11v-52h-15q-14 8 -30.5 9.5t-30.5 1.5q-47 0 -67 -26t-20 -76v-58h159v-54h-159v-446h-60v446h-77v35zM944 242q0 -56 -15.5 -103t-46 -81.5t-76.5 -53.5t-106 -19q-24 0 -48.5 6t-46.5 16.5t-40.5 25t-30.5 31.5h-2
l-19 -64h-42v700h60v-268h2q27 42 74 62.5t98 20.5q45 0 87.5 -15t76.5 -46.5t54.5 -79t20.5 -113.5v-19zM701 40q48 0 82.5 16.5t56 45t32 67.5t10.5 84q0 43 -11 80.5t-33.5 65.5t-56.5 44t-80 16q-45 0 -78 -17t-54 -45.5t-31 -65.5t-10 -78q0 -42 9.5 -80.5t30.5 -68
t54 -47t79 -17.5z" />
    <glyph glyph-name="f_f" horiz-adv-x="772" 
d="M428 481l67 18v47q0 169 148 169q19 0 41.5 -3t43.5 -11v-52h-15q-14 8 -35.5 9.5t-35.5 1.5q-47 0 -67 -26t-20 -76v-58h169v-54h-169v-446h-60v446h-67v35zM52 481l77 18v47q0 169 148 169q19 0 41.5 -3t43.5 -11v-52h-15q-14 8 -35.5 9.5t-35.5 1.5q-47 0 -67 -26
t-20 -76v-58h149v-54h-149v-446h-60v446h-77v35z" />
    <glyph glyph-name="f_f_b" horiz-adv-x="1373" 
d="M428 481l67 18v47q0 169 148 169q19 0 36.5 -3t38.5 -11v-52h-15q-14 8 -30.5 9.5t-30.5 1.5q-47 0 -67 -26t-20 -76v-58h159v-54h-159v-446h-60v446h-67v35zM52 481l77 18v47q0 169 148 169q19 0 41.5 -3t43.5 -11v-52h-15q-14 8 -35.5 9.5t-35.5 1.5q-47 0 -67 -26
t-20 -76v-58h149v-54h-149v-446h-60v446h-77v35zM1310 242q0 -56 -15.5 -103t-46 -81.5t-76.5 -53.5t-106 -19q-24 0 -48.5 6t-46.5 16.5t-40.5 25t-30.5 31.5h-2l-19 -64h-42v700h60v-268h2q27 42 74 62.5t98 20.5q45 0 87.5 -15t76.5 -46.5t54.5 -79t20.5 -113.5v-19z
M1067 40q48 0 82.5 16.5t56 45t32 67.5t10.5 84q0 43 -11 80.5t-33.5 65.5t-56.5 44t-80 16q-45 0 -78 -17t-54 -45.5t-31 -65.5t-10 -78q0 -42 9.5 -80.5t30.5 -68t54 -47t79 -17.5z" />
    <glyph glyph-name="f_f_dotlessi" horiz-adv-x="982" 
d="M428 481l67 18v47q0 169 148 169q19 0 36.5 -3t38.5 -11v-52h-15q-14 8 -30.5 9.5t-30.5 1.5q-47 0 -67 -26t-20 -76v-58h159v-54h-159v-446h-60v446h-67v35zM52 481l77 18v47q0 169 148 169q19 0 41.5 -3t43.5 -11v-52h-15q-14 8 -35.5 9.5t-35.5 1.5q-47 0 -67 -26
t-20 -76v-58h149v-54h-149v-446h-60v446h-77v35zM836 0v500h60v-500h-60z" />
    <glyph glyph-name="f_f_h" horiz-adv-x="1318" 
d="M428 481l67 18v47q0 169 148 169q19 0 36.5 -3t38.5 -11v-52h-15q-14 8 -30.5 9.5t-30.5 1.5q-47 0 -67 -26t-20 -76v-58h159v-54h-159v-446h-60v446h-67v35zM52 481l77 18v47q0 169 148 169q19 0 41.5 -3t43.5 -11v-52h-15q-14 8 -35.5 9.5t-35.5 1.5q-47 0 -67 -26
t-20 -76v-58h149v-54h-149v-446h-60v446h-77v35zM837 0v700h60v-257h2q26 34 67 53t85 19q91 0 138 -47q26 -26 38 -64.5t12 -89.5v-314h-60v317q0 36 -7.5 64t-26.5 47q-31 31 -97 31q-36 0 -64.5 -11t-52.5 -35q-18 -18 -26 -45t-8 -71v-297h-60z" />
    <glyph glyph-name="f_f_i" horiz-adv-x="982" 
d="M428 481l67 18v47q0 169 148 169q19 0 36.5 -3t38.5 -11v-52h-15q-14 8 -30.5 9.5t-30.5 1.5q-47 0 -67 -26t-20 -76v-58h159v-54h-159v-446h-60v446h-67v35zM52 481l77 18v47q0 169 148 169q19 0 41.5 -3t43.5 -11v-52h-15q-14 8 -35.5 9.5t-35.5 1.5q-47 0 -67 -26
t-20 -76v-58h149v-54h-149v-446h-60v446h-77v35zM915 668q0 -20 -14.5 -33.5t-34.5 -13.5t-34.5 13.5t-14.5 33.5v2q0 22 14.5 34t34.5 12t34.5 -12t14.5 -34v-2zM836 0v500h60v-500h-60z" />
    <glyph glyph-name="f_f_j" horiz-adv-x="982" 
d="M428 481l67 18v47q0 169 148 169q19 0 36.5 -3t38.5 -11v-52h-15q-14 8 -30.5 9.5t-30.5 1.5q-47 0 -67 -26t-20 -76v-58h159v-54h-159v-446h-60v446h-67v35zM52 481l77 18v47q0 169 148 169q19 0 41.5 -3t43.5 -11v-52h-15q-14 8 -35.5 9.5t-35.5 1.5q-47 0 -67 -26
t-20 -76v-58h149v-54h-149v-446h-60v446h-77v35zM914 668q0 -20 -14.5 -33.5t-34.5 -13.5t-34.5 13.5t-14.5 33.5v2q0 22 14.5 34t34.5 12t34.5 -12t14.5 -34v-2zM738 -180v20q27 19 46 43.5t30 51.5t16 54.5t5 52.5v458h60v-455q0 -73 -25.5 -131.5t-72.5 -93.5h-59z" />
    <glyph glyph-name="f_f_k" horiz-adv-x="1225" 
d="M428 481l67 18v47q0 169 148 169q19 0 36.5 -3t38.5 -11v-52h-15q-14 8 -30.5 9.5t-30.5 1.5q-47 0 -67 -26t-20 -76v-58h159v-54h-159v-446h-60v446h-67v35zM52 481l77 18v47q0 169 148 169q19 0 41.5 -3t43.5 -11v-52h-15q-14 8 -35.5 9.5t-35.5 1.5q-47 0 -67 -26
t-20 -76v-58h149v-54h-149v-446h-60v446h-77v35zM897 253v-253h-60v700h60v-422l210 222h64v-11l-204 -218l250 -260v-11h-71z" />
    <glyph glyph-name="f_f_l" horiz-adv-x="1006" 
d="M428 481l67 18v47q0 169 148 169q19 0 36.5 -3t38.5 -11v-52h-15q-14 8 -30.5 9.5t-30.5 1.5q-47 0 -67 -26t-20 -76v-58h159v-54h-159v-446h-60v446h-67v35zM52 481l77 18v47q0 169 148 169q19 0 41.5 -3t43.5 -11v-52h-15q-14 8 -35.5 9.5t-35.5 1.5q-47 0 -67 -26
t-20 -76v-58h149v-54h-149v-446h-60v446h-77v35zM891 97q0 -30 15 -41t45 -6h9v-53q-7 -2 -19 -2.5t-22 -0.5q-45 0 -66.5 24.5t-21.5 67.5v614h60v-603z" />
    <glyph glyph-name="f_f_t" horiz-adv-x="1124" 
d="M428 481l67 18v47q0 169 148 169q19 0 41.5 -3t43.5 -11v-52h-15q-14 8 -35.5 9.5t-35.5 1.5q-47 0 -67 -26t-20 -76v-58h139v-54h-139v-446h-60v446h-67v35zM52 481l77 18v47q0 169 148 169q19 0 41.5 -3t43.5 -11v-52h-15q-14 8 -35.5 9.5t-35.5 1.5q-47 0 -67 -26
t-20 -76v-58h149v-54h-149v-446h-60v446h-77v35zM1055 500v-54h-144v-316q0 -24 7 -40.5t18.5 -26.5t26 -14t30.5 -4q18 0 37.5 6t33.5 17h15v-54q-16 -10 -39.5 -16.5t-48.5 -6.5q-40 0 -67 12t-43.5 32t-23 48t-6.5 59v304h-67v35q30 9 47.5 21.5t26.5 29t12.5 37
t5.5 44.5h35v-113h144z" />
    <glyph glyph-name="f_h" horiz-adv-x="952" 
d="M52 481l77 18v47q0 169 148 169q19 0 36.5 -3t38.5 -11v-52h-15q-14 8 -30.5 9.5t-30.5 1.5q-47 0 -67 -26t-20 -76v-58h159v-54h-159v-446h-60v446h-77v35zM471 0v700h60v-257h2q26 34 67 53t85 19q91 0 138 -47q26 -26 38 -64.5t12 -89.5v-314h-60v317q0 36 -7.5 64
t-26.5 47q-31 31 -97 31q-36 0 -64.5 -11t-52.5 -35q-18 -18 -26 -45t-8 -71v-297h-60z" />
    <glyph glyph-name="f_j" horiz-adv-x="616" 
d="M52 481l77 18v47q0 169 148 169q19 0 36.5 -3t38.5 -11v-52h-15q-14 8 -30.5 9.5t-30.5 1.5q-47 0 -67 -26t-20 -76v-58h159v-54h-159v-446h-60v446h-77v35zM548 668q0 -20 -14.5 -33.5t-34.5 -13.5t-34.5 13.5t-14.5 33.5v2q0 22 14.5 34t34.5 12t34.5 -12t14.5 -34v-2z
M372 -180v20q27 19 46 43.5t30 51.5t16 54.5t5 52.5v458h60v-455q0 -73 -25.5 -131.5t-72.5 -93.5h-59z" />
    <glyph glyph-name="f_k" horiz-adv-x="859" 
d="M52 481l77 18v47q0 169 148 169q19 0 36.5 -3t38.5 -11v-52h-15q-14 8 -30.5 9.5t-30.5 1.5q-47 0 -67 -26t-20 -76v-58h159v-54h-159v-446h-60v446h-77v35zM531 253v-253h-60v700h60v-422l210 222h64v-11l-204 -218l250 -260v-11h-71z" />
    <glyph glyph-name="f_t" horiz-adv-x="758" 
d="M52 481l77 18v47q0 169 148 169q19 0 41.5 -3t43.5 -11v-52h-15q-14 8 -35.5 9.5t-35.5 1.5q-47 0 -67 -26t-20 -76v-58h139v-54h-139v-446h-60v446h-77v35zM689 500v-54h-144v-316q0 -24 7 -40.5t18.5 -26.5t26 -14t30.5 -4q18 0 37.5 6t33.5 17h15v-54
q-16 -10 -39.5 -16.5t-48.5 -6.5q-40 0 -67 12t-43.5 32t-23 48t-6.5 59v304h-67v35q30 9 47.5 21.5t26.5 29t12.5 37t5.5 44.5h35v-113h144z" />
    <glyph glyph-name="f_t_t" horiz-adv-x="1118" 
d="M52 481l77 18v47q0 169 148 169q19 0 41.5 -3t43.5 -11v-52h-15q-14 8 -35.5 9.5t-35.5 1.5q-47 0 -67 -26t-20 -76v-58h139v-54h-139v-446h-60v446h-77v35zM679 500v-54h-134v-316q0 -24 7 -40.5t18.5 -26.5t26 -14t30.5 -4q18 0 37.5 6t33.5 17h15v-54
q-16 -10 -39.5 -16.5t-48.5 -6.5q-40 0 -67 12t-43.5 32t-23 48t-6.5 59v304h-67v35q30 9 47.5 21.5t26.5 29t12.5 37t5.5 44.5h35v-113h134zM1049 500v-54h-144v-312q0 -49 25.5 -69t56.5 -20q18 0 37.5 6t33.5 17h15v-54q-16 -10 -39.5 -16.5t-48.5 -6.5q-40 0 -67 12
t-43.5 32t-23 48t-6.5 59v304h-77v32q33 9 52.5 22t30 30t14 38t5.5 45h35v-113h144z" />
    <glyph glyph-name="five.LT" horiz-adv-x="600" 
d="M129 317l36 333h314v-56h-259l-22 -216q12 2 30 3t31 1q44 0 88.5 -11t79.5 -34.5t57 -60.5t22 -88v-12q0 -43 -18.5 -78.5t-49.5 -60.5t-71 -38.5t-82 -13.5q-45 0 -97 10t-94 38v67h15q13 -14 33 -24.5t43 -18t47.5 -11t46.5 -3.5q38 0 68.5 11t51.5 29.5t32 44
t11 53.5q0 35 -14.5 61t-39 43.5t-56.5 26.5t-67 9q-29 0 -61.5 -3.5t-61.5 -13.5z" />
    <glyph glyph-name="five.inf" horiz-adv-x="289" 
d="M41 -3l20 183h183v-50h-133l-9 -84q26 3 53.5 -1.5t50.5 -17t38 -34t15 -53.5v-6q0 -24 -10 -44.5t-27.5 -36t-40.5 -24t-49 -8.5q-35 0 -61.5 8.5t-46.5 22.5v55h8q19 -12 41 -22.5t56 -10.5q39 0 57 20t18 41q0 18 -8.5 30.5t-21.5 19.5t-28 10t-29 3q-17 0 -35.5 -2.5
t-32.5 -5.5z" />
    <glyph glyph-name="four.LT" horiz-adv-x="600" 
d="M39 213l335 437h67v-434h98v-58h-98v-158h-62v158h-330zM379 216v345h-2l-261 -343v-2h263z" />
    <glyph glyph-name="four.inf" horiz-adv-x="334" 
d="M18 -52l176 223h59v-216h47v-50h-47v-87h-54v87h-174zM199 -45v148h-3q-20 -32 -50.5 -73t-58.5 -75h112z" />
    <glyph glyph-name="g.hist" horiz-adv-x="625" 
d="M125 252q0 -85 44.5 -138.5t136.5 -53.5q42 0 74 15t54 41t33.5 61t11.5 76q0 42 -9.5 79.5t-30.5 66t-53.5 45t-79.5 16.5q-48 0 -82.5 -15.5t-56 -43.5t-32 -66t-10.5 -83zM536 2q0 -49 -19 -87t-51 -64.5t-73.5 -40.5t-87.5 -14q-105 0 -162.5 51t-62.5 135v8h63
q2 -28 11.5 -52.5t29 -43t48 -29t67.5 -10.5q45 0 77.5 11.5t53.5 31.5t31 48t10 60v78h-2q-10 -18 -28 -32.5t-40.5 -25t-47.5 -16t-51 -5.5q-45 0 -87.5 12.5t-76.5 41t-54.5 74t-20.5 111.5v19q0 56 15.5 102.5t46 79.5t76.5 51.5t106 18.5q48 0 95 -21.5t71 -55.5h2
l19 62h42v-498z" />
    <glyph glyph-name="g.superior" horiz-adv-x="259" 
d="M130 536q-25 0 -39.5 -14t-14.5 -40t14.5 -39.5t39.5 -13.5q55 0 55 53q0 26 -14 40t-41 14zM28 484q0 47 30 69.5t72 22.5q9 0 17.5 -1t16.5 -3l43 50h48v-7l-52 -61q14 -12 22.5 -29.5t8.5 -40.5v-6q0 -44 -31 -66t-74 -22q-24 0 -44 6q-14 -6 -14 -21q0 -9 6.5 -16
t20.5 -7h64q39 0 66 -18.5t27 -51.5v-4q0 -22 -11.5 -38t-29.5 -26.5t-40.5 -16t-45.5 -5.5q-22 0 -43 4.5t-38 13.5t-27.5 23.5t-10.5 33.5v3q0 19 9.5 36t25.5 25q-7 6 -12.5 16t-5.5 22q0 26 27 45q-12 11 -18.5 26.5t-6.5 38.5v5zM130 232q34 0 55 12t21 35q0 31 -49 31
h-74q-25 -12 -25 -38q0 -18 18 -29t54 -11z" />
    <glyph glyph-name="gbreve.hist" horiz-adv-x="625" 
d="M125 252q0 -85 44.5 -138.5t136.5 -53.5q42 0 74 15t54 41t33.5 61t11.5 76q0 42 -9.5 79.5t-30.5 66t-53.5 45t-79.5 16.5q-48 0 -82.5 -15.5t-56 -43.5t-32 -66t-10.5 -83zM536 2q0 -49 -19 -87t-51 -64.5t-73.5 -40.5t-87.5 -14q-105 0 -162.5 51t-62.5 135v8h63
q2 -28 11.5 -52.5t29 -43t48 -29t67.5 -10.5q45 0 77.5 11.5t53.5 31.5t31 48t10 60v78h-2q-10 -18 -28 -32.5t-40.5 -25t-47.5 -16t-51 -5.5q-45 0 -87.5 12.5t-76.5 41t-54.5 74t-20.5 111.5v19q0 56 15.5 102.5t46 79.5t76.5 51.5t106 18.5q48 0 95 -21.5t71 -55.5h2
l19 62h42v-498zM449 663q-7 -49 -48.5 -76.5t-99.5 -27.5t-98.5 27.5t-47.5 76.5h60q8 -31 32.5 -45t54.5 -14t54.5 14t32.5 45h60z" />
    <glyph glyph-name="gcircumflex.hist" horiz-adv-x="625" 
d="M125 252q0 -85 44.5 -138.5t136.5 -53.5q42 0 74 15t54 41t33.5 61t11.5 76q0 42 -9.5 79.5t-30.5 66t-53.5 45t-79.5 16.5q-48 0 -82.5 -15.5t-56 -43.5t-32 -66t-10.5 -83zM536 2q0 -49 -19 -87t-51 -64.5t-73.5 -40.5t-87.5 -14q-105 0 -162.5 51t-62.5 135v8h63
q2 -28 11.5 -52.5t29 -43t48 -29t67.5 -10.5q45 0 77.5 11.5t53.5 31.5t31 48t10 60v78h-2q-10 -18 -28 -32.5t-40.5 -25t-47.5 -16t-51 -5.5q-45 0 -87.5 12.5t-76.5 41t-54.5 74t-20.5 111.5v19q0 56 15.5 102.5t46 79.5t76.5 51.5t106 18.5q48 0 95 -21.5t71 -55.5h2
l19 62h42v-498zM158 588l142 104l147 -104l-21 -35l-126 70l-119 -70z" />
    <glyph glyph-name="gdotaccent.hist" horiz-adv-x="625" 
d="M125 252q0 -85 44.5 -138.5t136.5 -53.5q42 0 74 15t54 41t33.5 61t11.5 76q0 42 -9.5 79.5t-30.5 66t-53.5 45t-79.5 16.5q-48 0 -82.5 -15.5t-56 -43.5t-32 -66t-10.5 -83zM536 2q0 -49 -19 -87t-51 -64.5t-73.5 -40.5t-87.5 -14q-105 0 -162.5 51t-62.5 135v8h63
q2 -28 11.5 -52.5t29 -43t48 -29t67.5 -10.5q45 0 77.5 11.5t53.5 31.5t31 48t10 60v78h-2q-10 -18 -28 -32.5t-40.5 -25t-47.5 -16t-51 -5.5q-45 0 -87.5 12.5t-76.5 41t-54.5 74t-20.5 111.5v19q0 56 15.5 102.5t46 79.5t76.5 51.5t106 18.5q48 0 95 -21.5t71 -55.5h2
l19 62h42v-498zM351 611q0 -20 -14.5 -33.5t-34.5 -13.5t-34.5 13.5t-14.5 33.5v2q0 22 14.5 34t34.5 12t34.5 -12t14.5 -34v-2z" />
    <glyph glyph-name="grave.cap" horiz-adv-x="499" 
d="M348 701l-210 114l36 57l196 -137z" />
    <glyph glyph-name="guillemotleft.cap" horiz-adv-x="527" 
d="M50 336l157 188h65v-14l-149 -179l149 -178v-14h-65l-157 188v9zM240 336l157 188h65v-14l-149 -179l149 -178v-14h-65l-157 188v9z" />
    <glyph glyph-name="guillemotright.cap" horiz-adv-x="527" 
d="M287 327l-157 -188h-65v14l149 178l-149 179v14h65l157 -188v-9zM477 327l-157 -188h-65v14l149 178l-149 179v14h65l157 -188v-9z" />
    <glyph glyph-name="guilsinglleft.cap" horiz-adv-x="337" 
d="M50 337l157 188h65v-14l-149 -179l149 -178v-14h-65l-157 188v9z" />
    <glyph glyph-name="guilsinglright.cap" horiz-adv-x="337" 
d="M287 329l-157 -188h-65v14l149 178l-149 179v14h65l157 -188v-9z" />
    <glyph glyph-name="h.superior" horiz-adv-x="315" 
d="M95 297h-49v373h49v-132h1q14 19 34.5 28t42.5 9q47 0 76 -29q24 -27 24 -77v-172h-48v160q0 21 -4 35t-12 24q-8 9 -19.5 12.5t-25.5 3.5q-34 0 -54 -21q-7 -8 -11 -21.5t-4 -33.5v-159z" />
    <glyph glyph-name="hungarumlaut.cap" 
d="M280 733l143 133l42 -57l-166 -110zM105 733l144 133l44 -59l-167 -108z" />
    <glyph glyph-name="hyphen.cap" horiz-adv-x="436" 
d="M82 362h255v-58h-255v58z" />
    <glyph glyph-name="i.dot" horiz-adv-x="232" 
d="M86 0v500h60v-500h-60zM165 612q0 -20 -14.5 -33.5t-34.5 -13.5t-34.5 13.5t-14.5 33.5v2q0 22 14.5 34t34.5 12t34.5 -12t14.5 -34v-2z" />
    <glyph glyph-name="i.superior" horiz-adv-x="134" 
d="M103 639q0 -14 -10 -22.5t-25 -8.5q-14 0 -24.5 8.5t-10.5 22.5v2q0 15 10.5 23t24.5 8q15 0 25 -8t10 -23v-2zM44 297v270h49v-270h-49z" />
    <glyph glyph-name="invertedbreve" 
d="M103 569q7 49 48.5 76.5t99.5 27.5t98.5 -27.5t47.5 -76.5h-60q-8 31 -32.5 45t-54.5 14t-54.5 -14t-32.5 -45h-60z" />
    <glyph glyph-name="invertedbreve.cap" horiz-adv-x="492" 
d="M99 707q7 49 48.5 76.5t99.5 27.5t98.5 -27.5t47.5 -76.5h-60q-8 31 -32.5 45t-54.5 14t-54.5 -14t-32.5 -45h-60z" />
    <glyph glyph-name="j.superior" horiz-adv-x="142" 
d="M111 639q0 -14 -10 -22.5t-25 -8.5q-14 0 -24.5 8.5t-10.5 22.5v2q0 15 10.5 23t24.5 8q15 0 25 -8t10 -23v-2zM0 200v7q29 21 40.5 55.5t11.5 62.5v242h50v-246q0 -37 -14 -69.5t-40 -51.5h-48z" />
    <glyph glyph-name="k.superior" horiz-adv-x="285" 
d="M54 297v373h49v-225l100 122h53v-7l-101 -120l130 -136v-7h-58l-124 128v-128h-49z" />
    <glyph glyph-name="l.superior" horiz-adv-x="159" 
d="M91 377q0 -23 12 -31.5t33 -5.5h9v-42q-6 -2 -15.5 -2.5t-17.5 -0.5q-35 0 -53 20t-18 55v300h50v-293z" />
    <glyph glyph-name="lowline" horiz-adv-x="438" 
d="M-2 -34h442v-53h-442v53z" />
    <glyph glyph-name="m.superior" horiz-adv-x="467" 
d="M95 297h-49v270h37l10 -31h1q14 20 32.5 29.5t39.5 9.5q59 0 81 -46h2q14 23 37 34.5t47 11.5q45 0 69.5 -27.5t24.5 -75.5v-175h-49v165q0 70 -54 70q-29 0 -46 -19t-17 -55v-161h-49v165q0 70 -55 70q-29 0 -45.5 -19.5t-16.5 -56.5v-159z" />
    <glyph glyph-name="macron.cap" horiz-adv-x="513" 
d="M119 770h276v-53h-276v53z" />
    <glyph glyph-name="macronbelow" 
d="M112 -96h276v-56h-276v56z" />
    <glyph glyph-name="minus.inf" horiz-adv-x="337" 
d="M43 21h251v-42h-251v42z" />
    <glyph glyph-name="n.superior" horiz-adv-x="315" 
d="M95 297h-49v270h37l9 -31h1q15 20 36 29.5t44 9.5q47 0 76 -29q24 -27 24 -77v-172h-48v160q0 21 -4 35t-12 24q-8 9 -19.5 12.5t-25.5 3.5q-34 0 -54 -21q-7 -8 -11 -21.5t-4 -33.5v-159z" />
    <glyph glyph-name="nine.LT" horiz-adv-x="600" 
d="M511 433q0 -48 -21 -107t-59 -116q-21 -32 -42 -59t-44 -52t-49 -49t-57 -50h-75v13q75 55 135.5 122.5t102.5 135.5l-1 1q-9 -7 -23.5 -13.5t-30 -11t-31 -7t-27.5 -2.5q-47 0 -87.5 13t-70.5 39.5t-47 66.5t-17 93v11q0 44 18 81.5t48.5 64.5t70.5 42.5t84 15.5
q57 0 98.5 -18t69.5 -47.5t41.5 -68t13.5 -79.5v-19zM292 295q39 0 68.5 13t49.5 34.5t30 50t10 59.5q0 27 -10.5 55t-31.5 50t-51 36t-69 14q-40 0 -70 -13.5t-49.5 -35t-29 -49t-9.5 -56.5q0 -34 10 -63t30 -50t50.5 -33t71.5 -12z" />
    <glyph glyph-name="nine.inf" horiz-adv-x="295" 
d="M269 54q0 -29 -12.5 -60.5t-32.5 -62t-45.5 -59.5t-51.5 -52h-67v8q15 10 32.5 25t34.5 32t31.5 34.5t23.5 33.5l-1 2q-5 -5 -18.5 -8.5t-27.5 -3.5q-22 0 -43.5 8t-37.5 23t-26 36.5t-10 48.5v4q0 26 10.5 47.5t28 36.5t41 23.5t48.5 8.5q58 0 90.5 -34.5t32.5 -85.5v-5
zM143 -8q36 0 53.5 21.5t17.5 47.5q0 27 -17.5 48.5t-54.5 21.5q-35 0 -53 -22.5t-18 -48.5q0 -27 18.5 -47.5t53.5 -20.5z" />
    <glyph glyph-name="o.superior" horiz-adv-x="332" 
d="M31 437q0 33 11 59t29 43.5t42.5 26.5t51.5 9t52 -9t43.5 -26.5t29.5 -43.5t11 -59v-9q0 -33 -11 -59t-29.5 -44t-43 -27.5t-51.5 -9.5t-51.5 9.5t-43 27.5t-29.5 44t-11 59v9zM166 330q43 0 64 29.5t21 72.5q0 44 -21 73t-64 29t-63.5 -29t-20.5 -73q0 -43 20.5 -72.5
t63.5 -29.5z" />
    <glyph glyph-name="one.LT" horiz-adv-x="600" 
d="M120 0v55h165v469h-149v38q36 2 64 4.5t49.5 11.5t36 26.5t21.5 49.5h40v-599h167v-55h-394z" />
    <glyph glyph-name="one.inf" horiz-adv-x="198" 
d="M101 -180v260h-77v34q38 5 59.5 16t33.5 43h35v-353h-51z" />
    <glyph glyph-name="p.superior" horiz-adv-x="348" 
d="M177 330q46 0 66.5 29.5t20.5 73.5q0 42 -21 71.5t-66 29.5q-43 0 -63.5 -30t-20.5 -71q0 -42 20 -72.5t64 -30.5zM314 430q0 -61 -35 -101t-99 -40q-29 0 -50 9.5t-34 26.5h-1v-125h-49v367h37l10 -32h1q15 21 39.5 31t52.5 10q24 0 47 -9t41 -26.5t29 -43t11 -59.5v-8z
" />
    <glyph glyph-name="parenleft.cap" horiz-adv-x="303" 
d="M191 -84q-57 109 -80.5 209.5t-23.5 197.5q0 101 23.5 202.5t80.5 210.5h41v-12q-44 -103 -62.5 -204t-18.5 -197q0 -94 19.5 -192t64.5 -203v-12h-44z" />
    <glyph glyph-name="parenleft.inf" horiz-adv-x="180" 
d="M145 222v-6q-25 -57 -36 -111t-11 -105t11 -105t36 -111v-5h-39q-32 58 -45 112.5t-13 108.5t13 108.5t45 113.5h39z" />
    <glyph glyph-name="parenright.cap" horiz-adv-x="307" 
d="M70 -84v12q47 105 67 203.5t20 195.5q0 95 -20.5 193.5t-67.5 203.5v12h47q56 -109 80 -210t24 -199q0 -100 -24 -201t-80 -210h-46z" />
    <glyph glyph-name="parenright.inf" horiz-adv-x="180" 
d="M35 -221v6q25 57 36 111t11 105t-11 105t-36 111v5h39q32 -58 45 -112.5t13 -108.5t-13 -108.5t-45 -113.5h-39z" />
    <glyph glyph-name="periodcentered.cap" horiz-adv-x="310" 
d="M197 330q0 -20 -14.5 -33.5t-34.5 -13.5t-34.5 13.5t-14.5 33.5v2q0 22 14.5 34t34.5 12t34.5 -12t14.5 -34v-2z" />
    <glyph glyph-name="plus.inf" horiz-adv-x="339" 
d="M43 21h102v106h47v-106h102v-42h-102v-105h-47v105h-102v42z" />
    <glyph glyph-name="q.superior" horiz-adv-x="345" 
d="M31 436q0 61 35 100.5t100 39.5q27 0 51 -12t37 -28h1l10 31h35v-367h-49v129h-1q-16 -20 -40 -30t-51 -10q-24 0 -47 9t-41 26t-29 43t-11 59v10zM168 534q-45 0 -65.5 -29t-20.5 -73q0 -42 20.5 -71.5t65.5 -29.5q44 0 64.5 29.5t20.5 71.5t-20 72t-65 30z" />
    <glyph glyph-name="questiondown.cap" horiz-adv-x="489" 
d="M278 460l5 -177l-6 -6q-27 -3 -52.5 -11t-44.5 -22.5t-30.5 -37t-11.5 -54.5q0 -51 30 -81t82 -30q59 0 84.5 27.5t29.5 66.5h58v-12q-3 -37 -19 -63t-40.5 -42.5t-53.5 -24.5t-57 -8q-42 0 -75 12t-55.5 33.5t-34.5 51.5t-12 65v10q0 61 41.5 105t106.5 60l3 138h52z
M204 609q0 20 14.5 33.5t34.5 13.5t34.5 -13.5t14.5 -33.5v-2q0 -22 -14.5 -34t-34.5 -12t-34.5 12t-14.5 34v2z" />
    <glyph glyph-name="r.superior" horiz-adv-x="203" 
d="M95 297h-49v270h33l12 -48h2q8 25 30.5 37.5t48.5 12.5h7.5t8.5 -1v-49h-14q-27 0 -43 -8t-24 -20.5t-10 -29.5t-2 -35v-129z" />
    <glyph glyph-name="registered.superior" horiz-adv-x="408" 
d="M205 326q-34 0 -64.5 13t-54 36t-37 53.5t-13.5 65.5t13.5 65.5t37 53.5t54 36.5t64.5 13.5q33 0 63.5 -13.5t53.5 -36.5t36.5 -53.5t13.5 -65.5t-13.5 -65.5t-36.5 -53.5t-53.5 -36t-63.5 -13zM205 635q-27 0 -51.5 -11t-43.5 -30t-30 -44.5t-11 -54.5t11 -55t30 -45.5
t43.5 -30.5t51.5 -11t51 11t42.5 30.5t29.5 45.5t11 55t-11 54.5t-29.5 44.5t-42.5 30t-51 11zM176 556v-59h33q17 0 25 9.5t8 20.5t-6.5 20t-20.5 9h-39zM277 525q0 -19 -10.5 -32t-25.5 -20q10 -15 20.5 -29.5t20.5 -29.5v-9h-34l-42 63h-30v-63h-34v181h69q26 0 46 -13.5
t20 -42.5v-5z" />
    <glyph glyph-name="ring.cap" horiz-adv-x="499" 
d="M159 820q0 38 26 63.5t64 25.5q39 0 65 -25.5t26 -63.5t-26 -64t-65 -26q-38 0 -64 26t-26 64zM293 821q0 20 -12 33.5t-32 13.5q-19 0 -31.5 -13.5t-12.5 -33.5t12.5 -34.5t31.5 -14.5q20 0 32 14.5t12 34.5z" />
    <glyph glyph-name="s.superior" horiz-adv-x="272" 
d="M35 498q0 21 8.5 36t23 24t32.5 13t36 4q39 0 67.5 -18.5t29.5 -56.5v-5h-48q-1 24 -15 33t-37 9q-25 0 -36.5 -10t-11.5 -25q0 -9 4.5 -17t14.5 -13q12 -5 28 -8t32 -7t31 -10t25 -16q22 -19 23 -57q0 -24 -9.5 -40.5t-24.5 -26t-34 -14t-38 -4.5q-47 0 -75.5 22
t-30.5 67v5h47q0 -54 62 -54q53 0 53 41q0 9 -5 18.5t-17 14.5q-11 4 -26.5 7t-31.5 7t-31.5 10.5t-26.5 17.5q-10 8 -14.5 21.5t-4.5 27.5v4z" />
    <glyph glyph-name="seven.LT" horiz-adv-x="600" 
d="M97 650h443v-57q-140 -128 -217.5 -277t-112.5 -316h-65v13q38 161 111.5 309t200.5 271v2h-360v55z" />
    <glyph glyph-name="seven.inf" horiz-adv-x="269" 
d="M22 171h245v-43q-39 -35 -66.5 -70.5t-47 -73t-32.5 -79t-23 -87.5h-52v8q8 37 21 77t31.5 79t42.5 75t53 64v1q-18 -1 -37 -1h-37h-98v50z" />
    <glyph glyph-name="six.LT" horiz-adv-x="600" 
d="M86 217q0 48 21 107t59 116q21 32 42 59t44 52t49 49.5t57 49.5h75v-13q-75 -55 -135.5 -122.5t-102.5 -135.5l1 -1q9 8 23.5 14t30 10.5t31 7t27.5 2.5q47 0 87.5 -13t70.5 -39.5t47 -66.5t17 -93v-11q0 -44 -18 -81.5t-48.5 -64.5t-70.5 -42.5t-84 -15.5
q-57 0 -98.5 18t-69.5 47.5t-41.5 68t-13.5 79.5v19zM305 355q-39 0 -68.5 -13t-49.5 -34.5t-30 -50t-10 -59.5q0 -27 10.5 -55t31.5 -50t51 -36t69 -14q40 0 70 13.5t49.5 35t29 49.5t9.5 56q0 34 -10 63t-30 50t-50.5 33t-71.5 12z" />
    <glyph glyph-name="six.inf" horiz-adv-x="295" 
d="M26 -62q0 29 12.5 60.5t32.5 62t45.5 59.5t51.5 52h67v-8q-15 -10 -32.5 -25t-34.5 -32t-31.5 -34.5t-23.5 -33.5l1 -2q5 5 18.5 8.5t27.5 3.5q23 0 44 -8t37 -23t26 -36.5t10 -48.5v-4q0 -26 -10.5 -47.5t-28 -36.5t-40.5 -23.5t-49 -8.5q-58 0 -90.5 34.5t-32.5 85.5v5
zM152 0q-36 0 -53.5 -21.5t-17.5 -47.5q0 -27 17.5 -48.5t54.5 -21.5q35 0 53 22.5t18 48.5q0 27 -18.5 47.5t-53.5 20.5z" />
    <glyph glyph-name="t.superior" horiz-adv-x="219" 
d="M190 567v-39h-81v-153q0 -23 12 -32t29 -9q23 0 41 13h8v-42q-10 -5 -25 -8.5t-29 -3.5q-45 0 -65.5 22.5t-20.5 66.5v146h-39v23q32 11 45.5 33t18.5 44h25v-61h81z" />
    <glyph glyph-name="t_t" horiz-adv-x="752" 
d="M313 500v-54h-134v-316q0 -24 7 -40.5t18.5 -26.5t26 -14t30.5 -4q18 0 37.5 6t33.5 17h15v-54q-16 -10 -39.5 -16.5t-48.5 -6.5q-40 0 -67 12t-43.5 32t-23 48t-6.5 59v304h-77v32q33 9 52.5 22t30 30t14 38t5.5 45h35v-113h134zM683 500v-54h-144v-312q0 -49 25.5 -69
t56.5 -20q18 0 37.5 6t33.5 17h15v-54q-16 -10 -39.5 -16.5t-48.5 -6.5q-40 0 -67 12t-43.5 32t-23 48t-6.5 59v304h-77v32q33 9 52.5 22t30 30t14 38t5.5 45h35v-113h144z" />
    <glyph glyph-name="three.LT" horiz-adv-x="600" 
d="M222 387l186 206v2h-290l-1 55h376v-49l-180 -197q43 0 81.5 -15t67 -42t45.5 -64t17 -80v-8q0 -52 -16.5 -91.5t-46 -66t-69 -40t-84.5 -13.5q-62 0 -102.5 18t-65 44.5t-35.5 57.5t-13 57v6h67q3 -25 13 -48t29 -40t46.5 -27.5t64.5 -10.5q72 0 110 42t38 114
q0 29 -9.5 55.5t-29 47t-48 32.5t-67.5 12q-18 0 -36 -2t-26 -4l-12 6z" />
    <glyph glyph-name="three.inf" horiz-adv-x="305" 
d="M144 -187q-51 0 -83.5 27t-34.5 75v4h52q8 -58 69 -58q32 0 50.5 17.5t18.5 49.5q0 24 -17.5 45t-55.5 21q-18 0 -33 -4l-8 7l-10 24l85 103v1q-14 -1 -26.5 -1h-19.5h-90v48h211v-34l-79 -97q42 -8 69.5 -37.5t27.5 -68.5v-4q0 -29 -10.5 -51t-28 -37t-40 -22.5
t-47.5 -7.5z" />
    <glyph glyph-name="tilde.cap" 
d="M98 705q0 18 5.5 35.5t16.5 32t28 23.5t40 9t39 -7.5t30 -16t26.5 -16t27.5 -7.5q17 0 30.5 10t13.5 42h47q0 -18 -5.5 -35.5t-16.5 -32t-28 -23.5t-40 -9q-22 0 -38.5 7.5t-30.5 16t-26.5 16t-27.5 7.5q-17 0 -30.5 -10t-13.5 -42h-47z" />
    <glyph glyph-name="two.LT" horiz-adv-x="600" 
d="M509 465q0 -41 -21 -87.5t-56 -87.5q-27 -31 -56.5 -63.5t-58.5 -62.5t-56.5 -57.5t-50.5 -48.5v-2h309l2 -56h-406v49q66 60 128.5 122.5t122.5 131.5q33 39 56.5 82t23.5 96q0 24 -7.5 47t-24 41t-42 29t-60.5 11q-66 -2 -101 -36t-35 -88q0 -10 1 -23t3 -23v-15h-59
q-2 10 -4 29.5t-2 30.5q0 38 12.5 71t37.5 57.5t62 38.5t85 14q46 0 82.5 -13.5t62 -38t39 -58.5t13.5 -75v-15z" />
    <glyph glyph-name="two.inf" horiz-adv-x="297" 
d="M32 -180v33q19 17 49 42.5t58 55.5t48 62t20 61q0 26 -16.5 42t-43.5 16q-33 0 -48.5 -18t-15.5 -41q0 -10 1 -16t1 -9v-6h-50q-4 13 -4 34q0 24 10 43.5t26 32.5t37 20t43 7q51 0 83.5 -27.5t32.5 -77.5v-7q0 -25 -13.5 -52t-34.5 -52.5t-45 -49t-45 -42.5v-3h143v-48
h-236z" />
    <glyph glyph-name="u.superior" horiz-adv-x="305" 
d="M89 567v-165q0 -41 19.5 -56t44.5 -15q23 0 43.5 15t20.5 56v165h48v-168q0 -29 -9.5 -50t-25 -34.5t-36 -20t-41.5 -6.5q-22 0 -42 6.5t-36 20t-25.5 34.5t-9.5 50v168h49z" />
    <glyph glyph-name="uni00200326" 
d="M208 -74h69v-11l-73 -144h-43z" />
    <glyph glyph-name="uni0123.hist" horiz-adv-x="625" 
d="M125 252q0 -85 44.5 -138.5t136.5 -53.5q42 0 74 15t54 41t33.5 61t11.5 76q0 42 -9.5 79.5t-30.5 66t-53.5 45t-79.5 16.5q-48 0 -82.5 -15.5t-56 -43.5t-32 -66t-10.5 -83zM536 2q0 -49 -19 -87t-51 -64.5t-73.5 -40.5t-87.5 -14q-105 0 -162.5 51t-62.5 135v8h63
q2 -28 11.5 -52.5t29 -43t48 -29t67.5 -10.5q45 0 77.5 11.5t53.5 31.5t31 48t10 60v78h-2q-10 -18 -28 -32.5t-40.5 -25t-47.5 -16t-51 -5.5q-45 0 -87.5 12.5t-76.5 41t-54.5 74t-20.5 111.5v19q0 56 15.5 102.5t46 79.5t76.5 51.5t106 18.5q48 0 95 -21.5t71 -55.5h2
l19 62h42v-498zM320 725h69v-11l-73 -144h-43z" />
    <glyph glyph-name="v.superior" horiz-adv-x="282" 
d="M226 567h48v-7l-109 -263h-47l-109 263v7h51l69 -179q2 -5 7.5 -19t7.5 -21h1q2 7 6.5 20.5l6.5 19.5z" />
    <glyph glyph-name="w.superior" horiz-adv-x="440" 
d="M220 505l-1 1l-66 -209h-51l-83 263v7h48l52 -171q2 -6 5.5 -19t4.5 -20h1q2 7 5 19.5t5 18.5l53 172h56l53 -172q2 -6 5.5 -18.5t5.5 -19.5h1q1 7 4.5 19t5.5 18l52 173h46v-7l-85 -263h-50z" />
    <glyph glyph-name="x.superior" horiz-adv-x="281" 
d="M172 439l99 -135v-7h-52l-77 105l-78 -105h-51v7l100 133l-85 123v7h54l63 -93l62 93h51v-7z" />
    <glyph glyph-name="y.hist" horiz-adv-x="560" 
d="M421 500h60v-496q0 -53 -17 -92.5t-46 -65t-67 -38t-80 -12.5q-34 0 -66.5 10.5t-59 31.5t-44 53t-22.5 76v8h59q8 -59 43.5 -90t93.5 -31q73 0 109.5 42t36.5 108v73h-2q-26 -38 -67 -55t-85 -17q-47 0 -82 12.5t-62 40.5q-23 26 -33.5 65t-10.5 92v285h60v-286
q0 -43 8 -72t26 -49q17 -17 41.5 -24.5t55.5 -7.5q36 0 65 11t54 37q15 17 23.5 43.5t8.5 70.5v277z" />
    <glyph glyph-name="y.superior" horiz-adv-x="280" 
d="M113 304l-106 256v7h51l69 -179q2 -5 7.5 -19t7.5 -21h1q2 7 6.5 20.5l6.5 19.5l68 179h48v-7l-148 -360h-51v7z" />
    <glyph glyph-name="yacute.hist" horiz-adv-x="560" 
d="M421 500h60v-496q0 -53 -17 -92.5t-46 -65t-67 -38t-80 -12.5q-34 0 -66.5 10.5t-59 31.5t-44 53t-22.5 76v8h59q8 -59 43.5 -90t93.5 -31q73 0 109.5 42t36.5 108v73h-2q-26 -38 -67 -55t-85 -17q-47 0 -82 12.5t-62 40.5q-23 26 -33.5 65t-10.5 92v285h60v-286
q0 -43 8 -72t26 -49q17 -17 41.5 -24.5t55.5 -7.5q36 0 65 11t54 37q15 17 23.5 43.5t8.5 70.5v277zM200 583l196 137l36 -57l-210 -114z" />
    <glyph glyph-name="ycircumflex.hist" horiz-adv-x="560" 
d="M421 500h60v-496q0 -53 -17 -92.5t-46 -65t-67 -38t-80 -12.5q-34 0 -66.5 10.5t-59 31.5t-44 53t-22.5 76v8h59q8 -59 43.5 -90t93.5 -31q73 0 109.5 42t36.5 108v73h-2q-26 -38 -67 -55t-85 -17q-47 0 -82 12.5t-62 40.5q-23 26 -33.5 65t-10.5 92v285h60v-286
q0 -43 8 -72t26 -49q17 -17 41.5 -24.5t55.5 -7.5q36 0 65 11t54 37q15 17 23.5 43.5t8.5 70.5v277zM140 588l142 104l147 -104l-21 -35l-126 70l-119 -70z" />
    <glyph glyph-name="ydieresis.hist" horiz-adv-x="560" 
d="M421 500h60v-496q0 -53 -17 -92.5t-46 -65t-67 -38t-80 -12.5q-34 0 -66.5 10.5t-59 31.5t-44 53t-22.5 76v8h59q8 -59 43.5 -90t93.5 -31q73 0 109.5 42t36.5 108v73h-2q-26 -38 -67 -55t-85 -17q-47 0 -82 12.5t-62 40.5q-23 26 -33.5 65t-10.5 92v285h60v-286
q0 -43 8 -72t26 -49q17 -17 41.5 -24.5t55.5 -7.5q36 0 65 11t54 37q15 17 23.5 43.5t8.5 70.5v277zM415 615q0 -20 -14.5 -33.5t-34.5 -13.5t-34.5 13.5t-14.5 33.5v2q0 22 14.5 34t34.5 12t34.5 -12t14.5 -34v-2zM251 615q0 -20 -14.5 -33.5t-34.5 -13.5t-34.5 13.5
t-14.5 33.5v2q0 22 14.5 34t34.5 12t34.5 -12t14.5 -34v-2z" />
    <glyph glyph-name="ygrave.hist" horiz-adv-x="560" 
d="M421 500h60v-496q0 -53 -17 -92.5t-46 -65t-67 -38t-80 -12.5q-34 0 -66.5 10.5t-59 31.5t-44 53t-22.5 76v8h59q8 -59 43.5 -90t93.5 -31q73 0 109.5 42t36.5 108v73h-2q-26 -38 -67 -55t-85 -17q-47 0 -82 12.5t-62 40.5q-23 26 -33.5 65t-10.5 92v285h60v-286
q0 -43 8 -72t26 -49q17 -17 41.5 -24.5t55.5 -7.5q36 0 65 11t54 37q15 17 23.5 43.5t8.5 70.5v277zM319 549l-210 114l36 57l196 -137z" />
    <glyph glyph-name="z.superior" horiz-adv-x="254" 
d="M30 567h201v-31l-141 -197v-2h142v-40h-207v31l141 198v2h-136v39z" />
    <glyph glyph-name="zero.LT" horiz-adv-x="600" 
d="M532 316q0 -73 -15 -133.5t-44.5 -104t-73 -68t-99.5 -24.5t-99.5 24.5t-73 68t-44.5 104t-15 133.5v18q0 73 15 134t44.5 104.5t73 68t99.5 24.5t99.5 -24.5t73 -68t44.5 -104.5t15 -134v-18zM300 46q46 0 78 22t52 60t29 88.5t9 106.5q0 58 -9 109.5t-29 89.5t-52 60.5
t-78 22.5t-78 -22t-52 -60t-29 -88.5t-9 -106.5q0 -58 9 -109.5t29 -89.5t52 -60.5t78 -22.5z" />
    <glyph glyph-name="zero.inf" horiz-adv-x="336" 
d="M36 1q0 79 33.5 129t98.5 50t98.5 -50t33.5 -129v-9q0 -39 -8.5 -71.5t-25 -56.5t-41.5 -37.5t-57 -13.5q-33 0 -57.5 13.5t-41 37.5t-25 56.5t-8.5 71.5v9zM169 132q-24 0 -39 -10t-24 -28t-12.5 -42.5t-3.5 -53.5t3.5 -53.5t12 -42.5t23.5 -28.5t39 -10.5t39 10
t23.5 28t12 43t3.5 54t-3.5 53.5t-12 42.5t-23.5 28t-38 10z" />
    <glyph glyph-name="zero.slash" horiz-adv-x="592" 
d="M528 316q0 -73 -15 -133.5t-44.5 -104t-73 -68t-99.5 -24.5t-99.5 24.5t-73 68t-44.5 104t-15 133.5v18q0 73 15 134t44.5 104.5t73 68t99.5 24.5t99.5 -24.5t73 -68t44.5 -104.5t15 -134v-18zM128 328q0 -66 11 -122t37 -95l196 473q-31 21 -76 21q-46 0 -78 -22
t-52 -60t-29 -88.5t-9 -106.5zM296 46q46 0 78 22t52 60t29 88.5t9 106.5q0 64 -11 119.5t-36 94.5l-195 -471q32 -20 74 -20z" />
    </font>
</defs>
</svg>
